<?xml version="1.0" standalone="no"?>
<!DOCTYPE svg PUBLIC "-//W3C//DTD SVG 1.1//EN" "http://www.w3.org/Graphics/SVG/1.1/DTD/svg11.dtd" >
<svg xmlns="http://www.w3.org/2000/svg" xmlns:xlink="http://www.w3.org/1999/xlink" version="1.1">
<metadata>
Created by FontForge 20201107 at Mon Jan 22 14:30:55 2024
 By 
Copyright 2011 The Roboto Project Authors (https://github.com/googlefonts/roboto-classic)
</metadata>
<defs>
<font id="Roboto-Light" horiz-adv-x="740" >
  <font-face 
    font-family="Roboto Light"
    font-weight="300"
    font-stretch="normal"
    units-per-em="2048"
    panose-1="2 0 0 0 0 0 0 0 0 0"
    ascent="1536"
    descent="-512"
    x-height="1082"
    cap-height="1456"
    bbox="-1505 -555 2331 2163"
    underline-thickness="100"
    underline-position="-200"
    unicode-range="U+0002-FFFD"
  />
<missing-glyph horiz-adv-x="908" 
d="M777 1456v-54h-650v54h650zM154 1456v-1456h-54v1456h54zM808 1456v-1456h-54v1456h54zM777 54v-54h-650v54h650zM777 1426l-593 -1396h-58l593 1396h58zM719 30l-593 1396h58l593 -1396h-58z" />
    <glyph glyph-name="uniFB01" unicode="fi" horiz-adv-x="1101" 
d="M348 0h-119v1196q0 117 43.5 197.5t124 122t191.5 41.5q67 0 136 -15t140 -44l-20 -104q-53 23 -111 38t-138 15q-121 0 -184 -64t-63 -187v-1196zM602 1082v-98h-553v98h553zM929 1082v-1082h-120v1082h120z" />
    <glyph glyph-name="uniFB02" unicode="fl" horiz-adv-x="1115" 
d="M363 0h-120v1216q0 111 39 187t112 115t176 39q46 0 108.5 -8.5t131 -22.5t133.5 -30l-62 -86q-86 17 -162 29t-142 12q-68 0 -116 -27.5t-73 -79.5t-25 -128v-1216zM824 0v1496h119v-1496h-119zM621 1082v-98h-557v98h557z" />
    <glyph glyph-name="uniFB03" unicode="ffi" horiz-adv-x="1696" 
d="M363 0h-120v1216q0 111 38.5 187t110 115t170.5 39q32 0 64.5 -3.5t63.5 -12.5l-9 -102q-24 7 -50 9.5t-59 2.5q-65 0 -112 -27.5t-72 -79.5t-25 -128v-1216zM676 1082v-98h-612v98h612zM943 0h-119v1196q0 117 43 197.5t124 122t192 41.5q67 0 136 -15t140 -44l-20 -104
q-53 23 -111 38t-138 15q-121 0 -184 -64t-63 -187v-1196zM1197 1082v-98h-553v98h553zM1524 1082v-1082h-120v1082h120z" />
    <glyph glyph-name="uniFB04" unicode="ffl" horiz-adv-x="1696" 
d="M363 0h-120v1216q0 111 38.5 187t110 115t170.5 39q32 0 64.5 -3.5t63.5 -12.5l-9 -102q-24 7 -50 9.5t-59 2.5q-65 0 -112 -27.5t-72 -79.5t-25 -128v-1216zM681 1082v-98h-617v98h617zM943 0h-119v1216q0 111 38.5 187t111.5 115t176 39q46 0 108.5 -8.5t131.5 -22.5
t134 -30l-62 -86q-87 17 -163 29t-141 12q-68 0 -116 -27.5t-73.5 -79.5t-25.5 -128v-1216zM1404 0v1496h120v-1496h-120zM1201 1082v-98h-557v98h557z" />
    <glyph glyph-name=".notdef" horiz-adv-x="908" 
d="M777 1456v-54h-650v54h650zM154 1456v-1456h-54v1456h54zM808 1456v-1456h-54v1456h54zM777 54v-54h-650v54h650zM777 1426l-593 -1396h-58l593 1396h58zM719 30l-593 1396h58l593 -1396h-58z" />
    <glyph glyph-name="glyph1" horiz-adv-x="0" 
 />
    <glyph glyph-name="glyph1" horiz-adv-x="0" 
 />
    <glyph glyph-name="uni000D" unicode="&#xd;" horiz-adv-x="499" 
 />
    <glyph glyph-name="uni0002" horiz-adv-x="0" 
 />
    <glyph glyph-name="space" unicode=" " horiz-adv-x="499" 
 />
    <glyph glyph-name="exclam" unicode="!" horiz-adv-x="463" 
d="M291 1456l-6 -1050h-111l-7 1050h124zM154 71q0 34 22 58t60 24t60.5 -24t22.5 -58q0 -33 -22.5 -56.5t-60.5 -23.5t-60 23.5t-22 56.5z" />
    <glyph glyph-name="quotedbl" unicode="&#x22;" horiz-adv-x="589" 
d="M244 1536v-139l-20 -314h-80l2 308v145h98zM480 1536v-139l-20 -314h-81l3 311v142h98z" />
    <glyph glyph-name="numbersign" unicode="#" horiz-adv-x="1191" 
d="M264 0l273 1456h100l-274 -1456h-99zM677 0l275 1456h99l-275 -1456h-99zM1201 944h-1040v96h1040v-96zM1126 410h-1041v95h1041v-95z" />
    <glyph glyph-name="dollar" unicode="$" horiz-adv-x="1136" 
d="M642 1678v-266h-103v266h103zM638 39v-247h-102v247h102zM902 360q0 73 -30.5 127.5t-102 99t-194.5 87.5q-126 41 -217.5 93t-141 130.5t-49.5 197.5q0 117 52 203t146.5 132.5t222.5 46.5q100 0 178 -29t132.5 -86.5t83.5 -141t29 -192.5h-119q0 74 -19.5 136
t-58.5 108.5t-95.5 72t-130.5 25.5q-103 0 -170 -37t-99 -99t-32 -136q0 -73 27 -127.5t98.5 -99.5t203.5 -89q126 -42 217 -94t140 -129.5t49 -196.5q0 -121 -55 -206.5t-154.5 -131t-231.5 -45.5q-85 0 -168 22.5t-150 74t-107 136t-40 207.5h120q0 -96 30.5 -160.5
t81.5 -102t112 -53.5t121 -16q102 0 173.5 36.5t109.5 98.5t38 138z" />
    <glyph glyph-name="percent" unicode="%" horiz-adv-x="1514" 
d="M110 1099v77q0 83 35 151t99 109t151 41t151 -41t99 -109t35 -151v-77q0 -81 -34.5 -149t-98 -109t-150.5 -41q-88 0 -152.5 41t-99.5 109t-35 149zM207 1176v-77q0 -53 20.5 -101.5t63 -79t106.5 -30.5q63 0 104 30.5t61.5 79t20.5 101.5v77q0 55 -20.5 103.5
t-62.5 79.5t-105 31t-105 -31t-62.5 -79.5t-20.5 -103.5zM842 279v78q0 82 35 150t99 109t151 41q88 0 151.5 -41t98.5 -109t35 -150v-78q0 -82 -34.5 -150t-98 -109t-150.5 -41q-88 0 -152 41t-99.5 109t-35.5 150zM939 357v-78q0 -53 20.5 -102t63 -79.5t106.5 -30.5
q63 0 104.5 30.5t62 79t20.5 102.5v78q0 57 -20.5 105.5t-62.5 78t-106 29.5q-62 0 -104 -29.5t-63 -78t-21 -105.5zM1146 1259l-711 -1138l-75 49l711 1138z" />
    <glyph glyph-name="ampersand" unicode="&#x26;" horiz-adv-x="1261" 
d="M391 785l234 177q63 46 104.5 100.5t41.5 128.5q0 71 -51 127t-147 56q-69 0 -117 -30.5t-72.5 -82t-24.5 -112.5q0 -48 19.5 -99.5t56.5 -107t89 -116.5l708 -826h-145l-603 701q-74 86 -129.5 159t-85.5 142t-30 143q0 103 41 177t116.5 114.5t177.5 40.5
q98 0 167.5 -39.5t106.5 -104t37 -142.5q0 -65 -29 -121t-73.5 -101.5t-92.5 -83.5l-267 -205q-85 -69 -126.5 -127t-55 -103t-13.5 -78q0 -76 36 -142t110 -106.5t187 -40.5q94 0 181.5 41t157 116t110 180t40.5 232h111q0 -95 -18.5 -177.5t-54.5 -153t-89 -129.5
q-8 -10 -11 -16t-11 -14q-80 -84 -187.5 -133t-228.5 -49q-140 0 -241.5 49.5t-156 137.5t-54.5 205q0 88 37 158.5t101 132.5t144 122z" />
    <glyph glyph-name="quotesingle" unicode="'" horiz-adv-x="349" 
d="M227 1536v-139l-17 -307h-90l5 297v149h102z" />
    <glyph glyph-name="parenleft" unicode="(" horiz-adv-x="654" 
d="M141 574v15q0 196 41 365.5t108 306t146 231.5t157 141l29 -82q-67 -47 -131 -136t-116 -214t-83 -279t-31 -330v-20q0 -176 31 -330t83 -279.5t116 -216t131 -138.5l-29 -78q-78 46 -157 139.5t-146 228t-108 305.5t-41 371z" />
    <glyph glyph-name="parenright" unicode=")" horiz-adv-x="668" 
d="M514 589v-15q0 -200 -41 -371t-107.5 -305.5t-146 -228t-156.5 -139.5l-29 78q66 47 130 137t116.5 216t83.5 280.5t31 330.5v20q0 176 -32 331t-85 280.5t-117 215.5t-127 136l29 78q77 -46 156.5 -141t146 -231.5t107.5 -306t41 -365.5z" />
    <glyph glyph-name="asterisk" unicode="*" horiz-adv-x="869" 
d="M144 701l218 300l-333 107l33 102l332 -122l-4 369h104l-9 -373l325 127l33 -103l-333 -114l223 -294l-86 -63l-213 305l-205 -303z" />
    <glyph glyph-name="plus" unicode="+" horiz-adv-x="1157" 
d="M1074 742v-114h-998v114h998zM630 1206v-1060h-120v1060h120z" />
    <glyph glyph-name="comma" unicode="," horiz-adv-x="393" 
d="M272 190v-141q0 -91 -37.5 -177t-102.5 -145l-71 53q31 41 52 82.5t31.5 86.5t10.5 98v143h117z" />
    <glyph glyph-name="hyphen" unicode="-" horiz-adv-x="587" 
d="M529 694v-103h-479v103h479z" />
    <glyph glyph-name="period" unicode="." horiz-adv-x="490" 
d="M146 74q0 35 22.5 59.5t62.5 24.5q39 0 62 -24.5t23 -59.5t-23 -59t-62 -24q-40 0 -62.5 24t-22.5 59z" />
    <glyph glyph-name="slash" unicode="/" horiz-adv-x="814" 
d="M747 1456l-607 -1581h-109l608 1581h108z" />
    <glyph glyph-name="zero" unicode="0" horiz-adv-x="1136" 
d="M1016 853v-245q0 -160 -30 -278.5t-87.5 -196t-140.5 -115.5t-189 -38q-84 0 -153.5 24t-124.5 73.5t-93 124.5t-58 176.5t-20 229.5v245q0 161 30.5 278.5t88.5 194t140.5 114t187.5 37.5q85 0 155 -24t124.5 -72.5t92 -123t57.5 -175t20 -229.5zM896 594v275
q0 99 -13.5 179.5t-39.5 141.5t-65.5 102t-92 61.5t-118.5 20.5q-81 0 -142.5 -32.5t-102 -96t-61.5 -158t-21 -218.5v-275q0 -98 13.5 -178.5t40 -142.5t66 -104t92 -64t117.5 -22q83 0 144 34t102 99t61 160.5t20 217.5z" />
    <glyph glyph-name="one" unicode="1" horiz-adv-x="1136" 
d="M694 1462v-1462h-119v1311l-396 -147v113l495 185h20z" />
    <glyph glyph-name="two" unicode="2" horiz-adv-x="1136" 
d="M1050 103v-103h-912v94l477 540q89 102 142 178.5t76.5 139.5t23.5 123q0 88 -34.5 155t-102.5 105t-167 38q-101 0 -174.5 -43t-113.5 -119.5t-40 -173.5h-119q0 120 53.5 220t153.5 159.5t240 59.5q131 0 226 -46.5t146.5 -133.5t51.5 -210q0 -65 -23.5 -132
t-64 -133.5t-91.5 -131.5t-107 -128l-406 -458h765z" />
    <glyph glyph-name="three" unicode="3" horiz-adv-x="1136" 
d="M404 795h122q112 0 187.5 38t114 102t38.5 142q0 88 -33 154.5t-100.5 104t-172.5 37.5q-91 0 -163.5 -36t-114.5 -103t-42 -159h-119q0 118 57 208.5t157 141.5t225 51q129 0 224.5 -47t148.5 -137t53 -219q0 -65 -28.5 -129t-84.5 -116t-139.5 -83t-192.5 -31h-137v81z
M404 691v80h137q124 0 213.5 -29t146.5 -80.5t84.5 -119.5t27.5 -146q0 -99 -33.5 -176.5t-94 -131t-142 -81t-178.5 -27.5q-88 0 -171.5 26t-150 78t-105.5 130t-39 181h120q0 -92 44 -162t122.5 -110t179.5 -40q103 0 176.5 36t112.5 105t39 168q0 105 -46.5 171t-129 97
t-191.5 31h-122z" />
    <glyph glyph-name="four" unicode="4" horiz-adv-x="1136" 
d="M1100 471v-103h-1032v69l673 1019h101l-143 -247l-484 -738h885zM872 1456v-1456h-119v1456h119z" />
    <glyph glyph-name="five" unicode="5" horiz-adv-x="1136" 
d="M314 720l-95 27l71 709h728v-112h-625l-52 -490q38 27 110.5 53.5t163.5 26.5q98 0 177 -32.5t136.5 -93.5t88 -148t30.5 -196q0 -105 -25.5 -193t-78.5 -153.5t-135.5 -101.5t-195.5 -36q-87 0 -163.5 24.5t-136.5 75t-97.5 126t-46.5 177.5h116q11 -97 52.5 -164
t111 -101.5t164.5 -34.5q78 0 136.5 25.5t98 74t60 119t20.5 160.5q0 78 -22 143.5t-64.5 115t-104.5 76.5t-142 27q-104 0 -165.5 -28t-114.5 -76z" />
    <glyph glyph-name="six" unicode="6" horiz-adv-x="1136" 
d="M826 1467h18v-105h-18q-138 0 -245.5 -45t-180.5 -129.5t-111 -204.5t-38 -269v-201q0 -100 27 -180t75 -135.5t111.5 -85t137.5 -29.5q73 0 131 30.5t98.5 84t62 124.5t21.5 151q0 77 -19.5 145.5t-59.5 121.5t-100 83t-141 30q-91 0 -171 -42t-131 -112t-54 -153l-68 1
q7 95 43 170t95.5 129t137 82t167.5 28q105 0 183.5 -38t131 -104.5t78.5 -153t26 -182.5q0 -105 -29.5 -195.5t-85.5 -158.5t-135.5 -106t-180.5 -38q-110 0 -197 42t-148.5 116t-93.5 171t-32 207v127q0 186 42.5 337.5t129 260.5t217 167.5t306.5 58.5z" />
    <glyph glyph-name="seven" unicode="7" horiz-adv-x="1136" 
d="M1035 1456v-69l-622 -1387h-125l618 1353h-828v103h957z" />
    <glyph glyph-name="eight" unicode="8" horiz-adv-x="1136" 
d="M1034 387q0 -133 -62 -223.5t-166.5 -137t-234.5 -46.5q-131 0 -236.5 46.5t-166.5 137t-61 223.5q0 86 34.5 158t96.5 124.5t146.5 81t184.5 28.5q131 0 236.5 -50t167 -138.5t61.5 -203.5zM913 386q0 93 -45 163t-123 108.5t-176 38.5q-100 0 -177.5 -38.5
t-121.5 -108.5t-44 -163q0 -97 44 -164.5t122 -103t179 -35.5q100 0 177 35.5t121 103t44 164.5zM996 1082q0 -107 -56.5 -190.5t-153 -131t-216.5 -47.5q-123 0 -219.5 47.5t-151.5 131t-55 190.5q0 127 55.5 214.5t151.5 133.5t217 46q122 0 218.5 -46t153 -133.5
t56.5 -214.5zM876 1083q0 85 -40.5 150t-110 102.5t-157.5 37.5t-157 -35t-108 -100t-39 -155q0 -87 39 -151t108.5 -98.5t158.5 -34.5q88 0 157 34.5t109 98.5t40 151z" />
    <glyph glyph-name="nine" unicode="9" horiz-adv-x="1136" 
d="M303 95h25q159 0 266 46t171.5 128.5t92.5 193.5t28 241v203q0 115 -25 202t-71 145.5t-108.5 88.5t-137.5 30q-76 0 -136 -32t-102 -88.5t-64 -128.5t-22 -153q0 -75 20 -144.5t60.5 -125t99 -87.5t135.5 -32q86 0 153.5 32.5t115 85.5t73 114.5t27.5 119.5l60 1
q0 -92 -33.5 -174t-94 -146t-141.5 -100.5t-175 -36.5q-102 0 -180.5 40.5t-131 109.5t-79.5 156.5t-27 181.5q0 105 29.5 197t86.5 162.5t138.5 110.5t185.5 40q117 0 204 -42.5t144.5 -120.5t86 -184t28.5 -234v-115q0 -129 -20.5 -247t-66.5 -217t-124 -172.5t-193 -114
t-273 -40.5h-26z" />
    <glyph glyph-name="colon" unicode=":" horiz-adv-x="430" 
d="M127 74q0 35 22.5 59.5t62.5 24.5q39 0 62 -24.5t23 -59.5t-23 -59t-62 -24q-40 0 -62.5 24t-22.5 59zM130 997q0 35 22.5 59.5t62.5 24.5q39 0 62 -24.5t23 -59.5t-23 -59t-62 -24q-40 0 -62.5 24t-22.5 59z" />
    <glyph glyph-name="semicolon" unicode=";" horiz-adv-x="399" 
d="M118 997q0 35 22.5 59.5t62.5 24.5q39 0 62 -24.5t23 -59.5t-23 -59t-62 -24q-40 0 -62.5 24t-22.5 59zM272 190v-141q0 -91 -37.5 -177t-102.5 -145l-71 53q31 41 52 82.5t31.5 86.5t10.5 98v143h117z" />
    <glyph glyph-name="less" unicode="&#x3c;" horiz-adv-x="1047" 
d="M158 678l747 -321v-128l-828 379v79zM905 957l-746 -323l-82 -7v79l828 378v-127z" />
    <glyph glyph-name="equal" unicode="=" horiz-adv-x="1133" 
d="M984 936v-107h-834v107h834zM984 525v-107h-834v107h834z" />
    <glyph glyph-name="greater" unicode="&#x3e;" horiz-adv-x="1062" 
d="M880 641l-755 320v125l845 -378v-80zM125 356l757 324l88 10v-80l-845 -379v125z" />
    <glyph glyph-name="question" unicode="?" horiz-adv-x="931" 
d="M496 405h-120q1 85 17 144t52 109.5t97 109.5q53 53 94 99t64.5 100.5t23.5 134.5q0 79 -28 139t-84 94t-139 34q-77 0 -137.5 -30t-95.5 -86.5t-36 -136.5h-120q2 114 54.5 194.5t140 123t194.5 42.5q119 0 202 -47t126 -131t43 -195q0 -89 -30 -160.5t-83 -134.5
t-122 -127q-65 -55 -89 -125.5t-24 -150.5zM360 71q0 34 22 58t60 24q39 0 61 -24t22 -58q0 -33 -22 -56.5t-61 -23.5q-38 0 -60 23.5t-22 56.5z" />
    <glyph glyph-name="at" unicode="@" horiz-adv-x="1871" 
d="M1752 513q-4 -94 -27.5 -188t-70 -172.5t-119 -125.5t-173.5 -47q-64 0 -112.5 23t-80.5 66.5t-45 105t-7 137.5l50 569h101l-50 -569q-6 -80 7.5 -129t39.5 -74t55.5 -33.5t53.5 -8.5q67 0 118 34t87 94.5t56 142t24 175.5q7 151 -13.5 278t-71.5 226.5t-133 168.5
t-196.5 105t-263.5 36q-129 0 -241.5 -38.5t-204 -112t-159 -177.5t-107 -235.5t-46.5 -285.5q-7 -149 17.5 -278t79.5 -232.5t139.5 -177.5t196 -113.5t248.5 -39.5q88 0 178.5 21.5t151.5 57.5l31 -80q-67 -44 -171 -66.5t-194 -22.5q-152 0 -277.5 41.5t-222 121
t-160.5 193t-94 258.5t-23 317q7 168 50.5 313t118.5 261t179 198.5t233.5 126.5t280.5 44q160 0 286.5 -41t220 -118.5t153.5 -188.5t87 -252t20 -308zM671 427q-8 -77 -1 -140.5t29 -110.5t59 -72t88 -25q39 0 79.5 14t79 48.5t72.5 94t58 149.5l49 -61
q-24 -85 -60.5 -149t-83 -107.5t-101 -65.5t-115.5 -22q-70 0 -123 32t-86.5 91t-46.5 141t-4 183q9 103 36.5 190.5t68 156t93 117t112.5 73.5t125 25q101 0 159 -32.5t110 -75.5l-68 -66q-30 34 -78.5 58t-115.5 24q-61 0 -116 -28.5t-100 -87t-76 -146.5t-43 -208z" />
    <glyph glyph-name="A" unicode="A" horiz-adv-x="1280" 
d="M663 1369l-504 -1369h-128l550 1456h90zM1121 0l-504 1369l-7 87h89l551 -1456h-129zM1032 514v-106h-774v106h774z" />
    <glyph glyph-name="B" unicode="B" horiz-adv-x="1256" 
d="M687 700h-411l-2 105h354q107 0 183 31t115.5 92t39.5 151q0 92 -39 152.5t-117 89.5t-195 29h-307v-1350h-123v1456h430q111 0 199 -22t149.5 -69t94 -118.5t32.5 -170.5q0 -90 -39.5 -162.5t-112.5 -118t-174 -56.5zM677 0h-440l63 106h377q108 0 184.5 36.5
t117.5 104.5t41 162q0 82 -36 148t-110 104.5t-187 38.5h-256l2 105h361l22 -38q99 -10 172 -60t114 -127.5t41 -168.5q0 -133 -58.5 -224.5t-163 -139t-244.5 -47.5z" />
    <glyph glyph-name="C" unicode="C" horiz-adv-x="1330" 
d="M1092 455h123q-15 -148 -80.5 -254t-180 -163.5t-274.5 -57.5q-124 0 -225 47t-173 134t-111 208t-39 268v182q0 148 39 268.5t112 207.5t175.5 134t229.5 47q156 0 268.5 -56.5t178 -162.5t80.5 -256h-123q-14 118 -62 200t-132 125.5t-210 43.5q-101 0 -181.5 -39
t-136.5 -111.5t-85.5 -173.5t-29.5 -225v-184q0 -119 28.5 -220t82.5 -175t133 -115t181 -41q129 0 215 41t134 123.5t63 204.5z" />
    <glyph glyph-name="D" unicode="D" horiz-adv-x="1342" 
d="M583 0h-329l2 106h327q157 0 270.5 70t175.5 195.5t62 290.5v135q0 126 -35.5 228t-101.5 174.5t-157.5 111.5t-204.5 39h-344v106h344q136 0 250 -46.5t197.5 -134t129 -209.5t45.5 -272v-132q0 -150 -45.5 -272t-129.5 -209t-199.5 -134t-256.5 -47zM308 1456v-1456
h-123v1456h123z" />
    <glyph glyph-name="E" unicode="E" horiz-adv-x="1165" 
d="M1090 106v-106h-819v106h819zM308 1456v-1456h-123v1456h123zM988 803v-105h-717v105h717zM1085 1456v-106h-814v106h814z" />
    <glyph glyph-name="F" unicode="F" horiz-adv-x="1152" 
d="M308 1456v-1456h-123v1456h123zM986 787v-107h-718v107h718zM1087 1456v-106h-819v106h819z" />
    <glyph glyph-name="G" unicode="G" horiz-adv-x="1401" 
d="M1236 693v-519q-25 -36 -86.5 -81.5t-164.5 -79t-255 -33.5q-129 0 -236 46.5t-185.5 134t-121 210.5t-42.5 275v176q0 150 39 270.5t113 206.5t178.5 131.5t234.5 45.5q163 0 273.5 -56t173 -153.5t78.5 -220.5h-124q-14 87 -58 160.5t-127.5 118.5t-215.5 45
q-106 0 -188 -39t-138.5 -111t-85.5 -172.5t-29 -223.5v-178q0 -127 32.5 -230t93.5 -177t146 -113.5t189 -39.5q111 0 189 21t125.5 50.5t68.5 54.5v375h-391v106h514z" />
    <glyph glyph-name="H" unicode="H" horiz-adv-x="1450" 
d="M1164 803v-105h-884v105h884zM308 1456v-1456h-123v1456h123zM1263 1456v-1456h-123v1456h123z" />
    <glyph glyph-name="I" unicode="I" horiz-adv-x="546" 
d="M335 1456v-1456h-123v1456h123z" />
    <glyph glyph-name="J" unicode="J" horiz-adv-x="1128" 
d="M828 434v1022h123v-1022q0 -147 -57 -248t-156.5 -153.5t-225.5 -52.5q-131 0 -230.5 46t-154.5 140t-55 236h123q0 -105 37.5 -175.5t108.5 -105.5t171 -35q88 0 159.5 39t114 117t42.5 192z" />
    <glyph glyph-name="K" unicode="K" horiz-adv-x="1293" 
d="M308 1456v-1456h-123v1456h123zM1209 1456l-628 -667l-317 -311l-12 138l254 264l548 576h155zM1106 0l-613 748l74 100l689 -848h-150z" />
    <glyph glyph-name="L" unicode="L" horiz-adv-x="1080" 
d="M1027 106v-106h-755v106h755zM309 1456v-1456h-124v1456h124z" />
    <glyph glyph-name="M" unicode="M" horiz-adv-x="1772" 
d="M223 1456h124l538 -1282l539 1282h124l-616 -1456h-94zM185 1456h109l14 -820v-636h-123v1456zM1478 1456h109v-1456h-123v636z" />
    <glyph glyph-name="N" unicode="N" horiz-adv-x="1455" 
d="M1269 1456v-1456h-124l-836 1244v-1244h-124v1456h124l838 -1243v1243h122z" />
    <glyph glyph-name="O" unicode="O" horiz-adv-x="1387" 
d="M1261 806v-155q0 -153 -40 -277t-114 -212t-178.5 -135t-233.5 -47q-127 0 -231.5 47t-180 135t-116.5 212t-41 277v155q0 153 40.5 276.5t115.5 211.5t179.5 135t231.5 47q129 0 233.5 -47t179.5 -135t115 -211.5t40 -276.5zM1138 651v157q0 129 -29.5 232t-87 176
t-140.5 112t-188 39q-104 0 -186 -39t-139.5 -112t-88 -176t-30.5 -232v-157q0 -130 31 -234t89 -177t140 -112t186 -39q106 0 188 39t139 112t86.5 177t29.5 234z" />
    <glyph glyph-name="P" unicode="P" horiz-adv-x="1261" 
d="M681 593h-416v106h416q130 0 211 42t118.5 115t37.5 164q0 89 -37.5 164t-118.5 120.5t-211 45.5h-373v-1350h-123v1456h496q160 0 269 -55t165 -153t56 -226q0 -134 -55.5 -230.5t-165 -147.5t-269.5 -51z" />
    <glyph glyph-name="Q" unicode="Q" horiz-adv-x="1387" 
d="M905 115l334 -292l-85 -77l-331 288zM1256 806v-155q0 -153 -39.5 -277t-114 -212t-178.5 -135t-234 -47q-127 0 -231.5 47t-180 135t-116 212t-40.5 277v155q0 153 40.5 276.5t115.5 211.5t179 135t231 47q130 0 234.5 -47t179 -135t114.5 -211.5t40 -276.5zM1134 651
v157q0 129 -30 232t-87.5 176t-140 112t-188.5 39q-103 0 -185 -39t-139.5 -112t-88 -176t-30.5 -232v-157q0 -130 30.5 -234t88.5 -177t140.5 -112t185.5 -39q106 0 188.5 39t139.5 112t86.5 177t29.5 234z" />
    <glyph glyph-name="R" unicode="R" horiz-adv-x="1301" 
d="M182 1456h473q152 0 262.5 -49t171 -144.5t60.5 -234.5q0 -103 -43 -187t-119.5 -140.5t-176.5 -77.5l-42 -16h-505l-2 105h422q114 0 190 44.5t114.5 116.5t38.5 155q0 99 -42.5 171.5t-125.5 111.5t-203 39h-349v-1350h-124v1456zM1081 0l-377 651l132 2l376 -640v-13
h-131z" />
    <glyph glyph-name="S" unicode="S" horiz-adv-x="1214" 
d="M1009 359q0 60 -20 106.5t-65.5 84t-122 70t-190.5 64.5q-109 31 -197 68t-150.5 85t-95.5 112.5t-33 150.5q0 84 36 153t101.5 119t155 77t196.5 27q153 0 265 -58t173 -156.5t61 -220.5h-123q0 95 -44.5 169.5t-128 117t-203.5 42.5t-201.5 -36.5t-122.5 -97
t-41 -134.5q0 -52 20 -95.5t65 -81t120.5 -69.5t185.5 -62q116 -31 205.5 -70t151.5 -90t94 -118t32 -155q0 -89 -37 -159.5t-104.5 -120t-159 -75.5t-200.5 -26q-97 0 -193 25t-175.5 78t-127 135.5t-47.5 198.5h123q0 -92 37 -155.5t98.5 -102t136 -56t148.5 -17.5
q115 0 199.5 34t131 95.5t46.5 143.5z" />
    <glyph glyph-name="T" unicode="T" horiz-adv-x="1223" 
d="M673 1456v-1456h-122v1456h122zM1172 1456v-106h-1119v106h1119z" />
    <glyph glyph-name="U" unicode="U" horiz-adv-x="1347" 
d="M1064 1456h123v-986q0 -163 -69 -272t-185.5 -163.5t-257.5 -54.5q-145 0 -261 54.5t-183.5 163.5t-67.5 272v986h122v-986q0 -127 50.5 -212.5t138.5 -128.5t201 -43t201 43t138 128.5t50 212.5v986z" />
    <glyph glyph-name="V" unicode="V" horiz-adv-x="1264" 
d="M640 182l459 1274h134l-541 -1456h-100zM166 1456l457 -1274l50 -182h-100l-541 1456h134z" />
    <glyph glyph-name="W" unicode="W" horiz-adv-x="1836" 
d="M554 385l316 1071h99l-79 -318l-338 -1138h-95zM187 1456l266 -1061l80 -395h-99l-373 1456h126zM1395 396l262 1060h126l-372 -1456h-99zM981 1456l311 -1071l96 -385h-95l-330 1138l-81 318h99z" />
    <glyph glyph-name="X" unicode="X" horiz-adv-x="1254" 
d="M218 1456l410 -614l410 614h146l-482 -717l497 -739h-147l-424 635l-426 -635h-146l497 739l-482 717h147z" />
    <glyph glyph-name="Y" unicode="Y" horiz-adv-x="1227" 
d="M171 1456l441 -792l444 792h143l-526 -907v-549h-123v549l-526 907h147z" />
    <glyph glyph-name="Z" unicode="Z" horiz-adv-x="1226" 
d="M1138 106v-106h-1002v106h1002zM1106 1367l-937 -1367h-78v94l936 1362h79v-89zM1052 1456v-105h-935v105h935z" />
    <glyph glyph-name="bracketleft" unicode="[" horiz-adv-x="491" 
d="M494 1664v-103h-210v-1770h210v-103h-330v1976h330z" />
    <glyph glyph-name="backslash" unicode="\" horiz-adv-x="808" 
d="M657 -125l-608 1581h117l608 -1581h-117z" />
    <glyph glyph-name="bracketright" unicode="]" horiz-adv-x="491" 
d="M1 1561v103h331v-1976h-331v103h210v1770h-210z" />
    <glyph glyph-name="asciicircum" unicode="^" horiz-adv-x="853" 
d="M435 1330l-242 -601h-115l299 727h80zM649 729l-240 601l-23 126h81l298 -727h-116z" />
    <glyph glyph-name="underscore" unicode="_" horiz-adv-x="885" 
d="M883 0v-103h-881v103h881z" />
    <glyph glyph-name="grave" unicode="`" horiz-adv-x="585" 
d="M248 1536l191 -280h-109l-227 280h145z" />
    <glyph glyph-name="a" unicode="a" horiz-adv-x="1098" 
d="M815 194v558q0 77 -32 133t-94 86t-153 30q-84 0 -149.5 -29.5t-103 -79t-37.5 -109.5l-119 1q0 61 29.5 118t84.5 102t131.5 71.5t169.5 26.5q115 0 203.5 -39t139 -117t50.5 -196v-523q0 -56 8.5 -116t24.5 -98v-13h-128q-12 36 -18.5 90.5t-6.5 103.5zM843 630l2 -92
h-234q-92 0 -164.5 -16.5t-122.5 -47.5t-76.5 -75.5t-26.5 -100.5q0 -58 29 -106t84 -76t130 -28q99 0 175.5 36.5t126.5 96.5t67 131l52 -69q-13 -49 -47.5 -102t-89 -98.5t-129 -74t-169.5 -28.5q-105 0 -184 40.5t-122 110t-43 157.5q0 79 34 142.5t98 108t155.5 68
t205.5 23.5h249z" />
    <glyph glyph-name="b" unicode="b" horiz-adv-x="1136" 
d="M155 1536h120v-1326l-8 -210h-112v1536zM1028 551v-21q0 -121 -27.5 -221.5t-80.5 -174t-130 -114t-175 -40.5q-97 0 -172 31t-128 87t-85.5 133t-44.5 168v267q15 98 48 178t85.5 138t126 89t168.5 31q99 0 176.5 -38.5t130.5 -111t80.5 -174t27.5 -227.5zM907 530v21
q0 95 -18 176t-56.5 141.5t-98.5 94.5t-144 34q-86 0 -146 -28.5t-99.5 -75t-62.5 -101.5t-34 -108v-310q17 -76 59 -141.5t112.5 -106t172.5 -40.5q82 0 141.5 33.5t98 94t57 141.5t18.5 175z" />
    <glyph glyph-name="c" unicode="c" horiz-adv-x="1056" 
d="M557 83q75 0 141.5 29t110 85t49.5 138h115q-5 -103 -63 -183t-150.5 -126t-202.5 -46q-114 0 -200.5 41.5t-144.5 115t-87.5 171.5t-29.5 212v42q0 114 29.5 212.5t87.5 172t144 114.5t200 41q116 0 208 -47t148 -133t61 -204h-115q-5 87 -46 150t-108 97t-148 34
q-92 0 -157.5 -35.5t-106 -97t-59 -140t-18.5 -164.5v-42q0 -86 18.5 -164.5t59 -140t106 -97t158.5 -35.5z" />
    <glyph glyph-name="d" unicode="d" horiz-adv-x="1138" 
d="M860 210v1326h120v-1536h-112zM109 530v21q0 126 29 227.5t83.5 174t131.5 111t174 38.5q95 0 168 -31t125.5 -89t85 -138t47.5 -178v-267q-12 -91 -44 -168t-85 -133t-127.5 -87t-171.5 -31q-96 0 -173 40.5t-131 114t-83 174t-29 221.5zM230 551v-21q0 -94 19 -175
t58 -141.5t99 -94t141 -33.5q103 0 173 39.5t112 105t61 143.5v310q-12 53 -35 108t-62.5 101.5t-100 75t-146.5 28.5q-82 0 -142.5 -34t-99.5 -94.5t-58 -141.5t-19 -176z" />
    <glyph glyph-name="e" unicode="e" horiz-adv-x="1059" 
d="M576 -20q-106 0 -195 39t-154 110t-101 168.5t-36 213.5v43q0 125 37.5 226t102 173.5t148 110.5t176.5 38q103 0 182.5 -36.5t134.5 -103t83 -157t28 -199.5v-73h-819v103h699v13q-2 91 -36.5 170.5t-102 129.5t-169.5 50q-77 0 -140 -32t-108.5 -91.5t-70.5 -141
t-25 -180.5v-43q0 -89 27 -167t76 -136.5t117 -92t151 -33.5q95 0 169.5 35.5t133.5 112.5l75 -58q-36 -52 -88 -95.5t-125 -70t-170 -26.5z" />
    <glyph glyph-name="f" unicode="f" horiz-adv-x="679" 
d="M363 0h-120v1216q0 111 38.5 187t110 115t170.5 39q32 0 64.5 -3.5t63.5 -12.5l-9 -102q-24 7 -50 9.5t-59 2.5q-65 0 -112 -27.5t-72 -79.5t-25 -128v-1216zM621 1082v-98h-557v98h557z" />
    <glyph glyph-name="g" unicode="g" horiz-adv-x="1137" 
d="M869 1082h111v-1063q0 -140 -53.5 -241.5t-151 -155t-228.5 -53.5q-68 0 -138.5 20t-133 61.5t-106.5 103.5l68 73q65 -81 140 -118.5t162 -37.5q103 0 174.5 41t109 118t37.5 185v829zM109 530v21q0 126 28.5 227.5t82.5 174t131.5 111t175.5 38.5q95 0 168 -31
t125.5 -89t85 -138t47.5 -178v-267q-12 -91 -44 -168t-85 -133t-127.5 -87t-171.5 -31t-174 40.5t-131 114t-82.5 174t-28.5 221.5zM229 551v-21q0 -94 19 -175t58 -141.5t99 -94t142 -33.5q103 0 172.5 39.5t110.5 105t60 143.5v310q-11 53 -33.5 108t-62 101.5t-99.5 75
t-146 28.5q-83 0 -143.5 -34t-99.5 -94.5t-58 -141.5t-19 -176z" />
    <glyph glyph-name="h" unicode="h" horiz-adv-x="1125" 
d="M276 1536v-1536h-119v1536h119zM250 608l-53 30q5 96 38 180t89.5 148t133.5 100t170 36q81 0 145 -22t108.5 -69.5t68 -123t23.5 -182.5v-705h-120v706q0 111 -31 174.5t-88 90.5t-135 27q-86 0 -150.5 -37.5t-108 -97t-66.5 -127t-24 -128.5z" />
    <glyph glyph-name="i" unicode="i" horiz-adv-x="460" 
d="M291 1082v-1082h-120v1082h120zM150 1395q0 34 21.5 57.5t60.5 23.5q38 0 60.5 -23.5t22.5 -57.5q0 -33 -22.5 -56.5t-60.5 -23.5q-39 0 -60.5 23.5t-21.5 56.5z" />
    <glyph glyph-name="j" unicode="j" horiz-adv-x="468" 
d="M166 1082h120v-1211q0 -99 -32.5 -168t-95.5 -104.5t-156 -35.5q-25 0 -54 5t-52 14l2 100q17 -5 42 -9t48 -4q57 0 97 22.5t60.5 67.5t20.5 112v1211zM145 1395q0 34 22 57.5t60 23.5q39 0 61 -23.5t22 -57.5q0 -33 -22 -56.5t-61 -23.5q-38 0 -60 23.5t-22 56.5z" />
    <glyph glyph-name="k" unicode="k" horiz-adv-x="1004" 
d="M277 1536v-1536h-120v1536h120zM955 1082l-505 -502l-216 -208l-17 118l173 187l414 405h151zM851 0l-451 562l65 104l530 -666h-144z" />
    <glyph glyph-name="l" unicode="l" horiz-adv-x="460" 
d="M291 1536v-1536h-120v1536h120z" />
    <glyph glyph-name="m" unicode="m" horiz-adv-x="1816" 
d="M271 859v-859h-121v1082h116zM248 608l-57 30q5 96 36 180t85.5 148t132 100t175.5 36q79 0 143 -21.5t110 -67t70.5 -118t24.5 -174.5v-721h-119v716q0 108 -33.5 169t-93 87t-137.5 26q-92 0 -155.5 -37.5t-103 -97t-58 -127t-20.5 -128.5zM967 702l-80 -2
q5 79 36.5 151t86.5 128.5t131.5 89.5t172.5 33q84 0 150 -22.5t111.5 -70.5t69.5 -123t24 -180v-706h-120v707q0 114 -33.5 177.5t-92.5 88.5t-138 25q-78 -1 -137 -28.5t-98.5 -72t-60 -95.5t-22.5 -100z" />
    <glyph glyph-name="n" unicode="n" horiz-adv-x="1126" 
d="M276 851v-851h-119v1082h114zM250 608l-53 30q5 96 38 180t89.5 148t133.5 100t170 36q81 0 145 -22t108.5 -69.5t68 -123t23.5 -182.5v-705h-120v706q0 111 -31 174.5t-88 90.5t-135 27q-86 0 -150.5 -37.5t-108 -97t-66.5 -127t-24 -128.5z" />
    <glyph glyph-name="o" unicode="o" horiz-adv-x="1148" 
d="M91 525v32q0 118 34.5 218t97.5 173t152 113.5t198 40.5q110 0 199.5 -40.5t153 -113.5t97.5 -173t34 -218v-32q0 -118 -34 -217.5t-97.5 -173t-152 -114t-198.5 -40.5t-199 40.5t-152.5 114t-98 173t-34.5 217.5zM211 557v-32q0 -89 23.5 -168.5t70 -141t114.5 -97
t156 -35.5t155.5 35.5t113.5 97t69.5 141t23.5 168.5v32q0 88 -23.5 167t-70 141t-114.5 98t-156 36q-87 0 -154.5 -36t-114 -98t-70 -141t-23.5 -167z" />
    <glyph glyph-name="p" unicode="p" horiz-adv-x="1136" 
d="M275 874v-1290h-120v1498h112zM1027 551v-21q0 -121 -27.5 -221.5t-80.5 -174t-129.5 -114t-175.5 -40.5q-97 0 -173 30t-130 85.5t-87 130.5t-45 164v276q15 98 49 178t87 138t127.5 89t169.5 31q99 0 176.5 -38.5t130.5 -111t80.5 -174t27.5 -227.5zM907 530v21
q0 95 -19.5 176t-59 141.5t-100 94.5t-143.5 34q-86 0 -146.5 -28.5t-100 -75t-62.5 -101.5t-34 -108v-319q19 -76 61 -140t112 -103t172 -39q82 0 142 34.5t99.5 95t59 142t19.5 175.5z" />
    <glyph glyph-name="q" unicode="q" horiz-adv-x="1143" 
d="M860 -416v1290l8 208h112v-1498h-120zM109 530v21q0 126 28 227.5t82.5 174t132 111t176.5 38.5q96 0 169.5 -31t127 -89t87 -138t48.5 -178v-267q-12 -91 -44.5 -168t-86.5 -133t-129.5 -87t-173.5 -31t-175.5 40.5t-131 114t-82 174t-28.5 221.5zM230 551v-21
q0 -94 19 -175.5t58.5 -142t99.5 -95t142 -34.5q103 0 173.5 40t113 106.5t61.5 144.5v310q-10 51 -34 106t-64.5 102.5t-101.5 77t-146 29.5q-83 0 -143.5 -34.5t-100 -95.5t-58.5 -142t-19 -176z" />
    <glyph glyph-name="r" unicode="r" horiz-adv-x="690" 
d="M276 903v-903h-119v1082h117zM660 1090l-4 -110q-19 3 -38 5t-42 2q-77 0 -136 -28.5t-98.5 -79t-60.5 -117.5t-24 -145l-44 -16q0 106 22 197t67 159.5t114.5 106.5t164.5 38q22 0 44.5 -3.5t34.5 -8.5z" />
    <glyph glyph-name="s" unicode="s" horiz-adv-x="1038" 
d="M805 276q0 45 -22 87.5t-84.5 78.5t-182.5 61q-91 20 -161.5 45t-118.5 60t-73 84t-25 116q0 60 26.5 113.5t76 94t120 63.5t158.5 23q126 0 215 -42.5t137 -115.5t48 -165h-120q0 56 -32.5 106t-95 82t-152.5 32q-93 0 -150.5 -28t-84 -71t-26.5 -89q0 -36 11 -65.5
t42 -54.5t88 -47t147 -42q131 -30 214.5 -71.5t124 -101.5t40.5 -146q0 -67 -28 -122.5t-80.5 -96t-126 -62.5t-164.5 -22q-137 0 -232 46t-143.5 120t-48.5 159h120q5 -85 52.5 -133.5t115.5 -68.5t136 -20q91 0 153 27t94 71.5t32 94.5z" />
    <glyph glyph-name="t" unicode="t" horiz-adv-x="659" 
d="M567 1082v-98h-543v98h543zM223 1360h120v-1096q0 -75 19.5 -113.5t52 -51t69.5 -12.5q27 0 51.5 3.5l45.5 6.5l5 -101q-22 -7 -57.5 -11.5t-70.5 -4.5q-69 0 -122 26t-83 88t-30 170v1096z" />
    <glyph glyph-name="u" unicode="u" horiz-adv-x="1125" 
d="M850 250v832h121v-1082h-116zM872 451l62 2q0 -102 -24 -188.5t-75 -150t-132 -99t-195 -35.5q-79 0 -144.5 23t-112.5 71.5t-72.5 126.5t-25.5 189v692h119v-694q0 -86 19.5 -144.5t54 -93t79.5 -49.5t97 -15q132 0 208.5 50.5t109 134t32.5 180.5z" />
    <glyph glyph-name="v" unicode="v" horiz-adv-x="985" 
d="M476 116l347 966h123l-405 -1082h-87zM162 1082l352 -969l18 -113h-88l-406 1082h124z" />
    <glyph glyph-name="w" unicode="w" horiz-adv-x="1545" 
d="M457 253l261 829h85l-50 -223l-273 -859h-85zM187 1082l229 -834l48 -248h-87l-314 1082h124zM1127 251l223 831h124l-315 -1082h-86zM820 1082l257 -822l65 -260h-85l-279 860l-47 222h89z" />
    <glyph glyph-name="x" unicode="x" horiz-adv-x="997" 
d="M205 1082l291 -437l293 437h142l-367 -530l383 -552h-141l-308 457l-308 -457h-141l382 552l-367 530h141z" />
    <glyph glyph-name="y" unicode="y" horiz-adv-x="974" 
d="M478 108l337 974h129l-457 -1255q-14 -37 -35.5 -82.5t-56 -87t-86 -68t-125.5 -26.5q-19 0 -49 4.5t-43 9.5l-1 100q11 -2 32 -4t29 -2q65 0 109.5 22t74.5 65.5t53 107.5zM163 1082l345 -929l33 -124l-88 -50l-420 1103h130z" />
    <glyph glyph-name="z" unicode="z" horiz-adv-x="997" 
d="M939 103v-103h-808v103h808zM895 993l-733 -993h-74v90l731 992h76v-89zM841 1082v-104h-733v104h733z" />
    <glyph glyph-name="braceleft" unicode="{" horiz-adv-x="677" 
d="M637 1597l27 -79q-133 -42 -188.5 -146t-55.5 -240v-227q0 -94 -35.5 -171t-113 -122.5t-202.5 -45.5v83q123 0 177 69.5t54 186.5v227q0 105 30.5 196.5t104 161t202.5 107.5zM667 -323l-30 -80q-129 39 -202.5 107.5t-104 159.5t-30.5 196v225q0 79 -24 136.5
t-74.5 89.5t-132.5 32v83q125 0 202.5 -45.5t113 -122.5t35.5 -173v-225q0 -91 25 -167t79 -131.5t143 -84.5z" />
    <glyph glyph-name="bar" unicode="|" horiz-adv-x="453" 
d="M280 1456v-1726h-101v1726h101z" />
    <glyph glyph-name="braceright" unicode="}" horiz-adv-x="677" 
d="M13 1518l26 79q130 -38 203.5 -107.5t104 -161t30.5 -196.5v-227q0 -78 24 -135.5t74.5 -89t132.5 -31.5v-78q-125 0 -202.5 44t-113 120t-35.5 170v227q0 91 -24 168t-77.5 133.5t-142.5 84.5zM39 -403l-29 80q89 29 143 84.5t79 131.5t25 167v225q0 96 35.5 171.5
t113 120t202.5 44.5v-78q-122 0 -176.5 -70t-54.5 -188v-225q0 -105 -30.5 -196t-104 -159.5t-203.5 -107.5z" />
    <glyph glyph-name="asciitilde" unicode="~" horiz-adv-x="1403" 
d="M1151 765h104q0 -69 -20 -130.5t-58.5 -109t-93.5 -75t-125 -27.5q-88 0 -153 37t-145 107q-62 57 -110 85t-109 28q-58 0 -100 -26.5t-64.5 -78t-22.5 -125.5l-108 -1q0 71 19.5 132.5t57.5 108.5t93 73t125 26q90 0 156.5 -38.5t142.5 -106.5q66 -60 113.5 -86.5
t104.5 -26.5q61 0 104 29t66 82t23 123z" />
    <glyph glyph-name="uni00A0" unicode="&#xa0;" horiz-adv-x="499" 
 />
    <glyph glyph-name="exclamdown" unicode="&#xa1;" horiz-adv-x="453" 
d="M168 -360l7 1050h111l7 -1050h-125zM306 1022q0 -33 -22 -57t-60 -24t-60.5 24t-22.5 57q0 34 22.5 57t60.5 23t60 -23t22 -57z" />
    <glyph glyph-name="cent" unicode="&#xa2;" horiz-adv-x="1116" 
d="M637 1318v-268h-120v268h120zM637 22v-267h-120v267h120zM582 83q75 0 141.5 29t110 85t49.5 138h115q-5 -103 -63 -183t-150.5 -126t-202.5 -46q-114 0 -200.5 41.5t-144.5 115t-87.5 171.5t-29.5 212v42q0 114 29.5 212.5t87.5 172t144 114.5t200 41q116 0 208 -47
t148 -133t61 -204h-115q-5 87 -46 150t-108 97t-148 34q-92 0 -157.5 -35.5t-106 -97t-59 -140t-18.5 -164.5v-42q0 -86 18.5 -164.5t59 -140t106 -97t158.5 -35.5z" />
    <glyph glyph-name="sterling" unicode="&#xa3;" horiz-adv-x="1171" 
d="M1095 0h-998v106h997zM746 645h-653v106h653v-106zM392 1039l22 -670q2 -103 -23.5 -182t-77.5 -120l-117 39q35 10 56.5 53t30.5 100.5t8 109.5l-22 670q0 138 52 235.5t143 149.5t210 52q126 0 213.5 -49t134 -136.5t46.5 -202.5h-123q0 101 -38.5 163.5t-102 91
t-138.5 28.5q-81 0 -142.5 -38.5t-96.5 -112.5t-35 -181z" />
    <glyph glyph-name="currency" unicode="&#xa4;" horiz-adv-x="1482" 
d="M258 608q0 -106 38 -200t104 -164.5t153.5 -110.5t186.5 -40q100 0 187 40t153 110.5t103.5 164.5t37.5 200q0 107 -37.5 200t-103.5 163.5t-153 110.5t-187 40q-99 0 -186.5 -40t-153.5 -110.5t-104 -163.5t-38 -200zM145 608q0 133 46.5 247t128 199t189.5 132.5
t231 47.5t231 -47.5t190 -132.5t128 -199t46 -247t-46 -247t-128 -199.5t-190 -133.5t-231 -48t-231 48t-189.5 133.5t-128 199.5t-46.5 247zM1376 1177l-202 -206l-87 88l202 206zM397 180l-202 -206l-85 88l202 205zM1289 -27l-202 206l87 88l202 -205zM312 971l-202 206
l85 87l202 -206z" />
    <glyph glyph-name="yen" unicode="&#xa5;" horiz-adv-x="1057" 
d="M945 707v-90h-835v90h835zM945 414v-90h-835v90h835zM514 702l379 754h137l-445 -839h-87zM164 1456l380 -757l13 -82h-87l-446 839h140zM587 731v-731h-123v731h123z" />
    <glyph glyph-name="brokenbar" unicode="&#xa6;" horiz-adv-x="445" 
d="M280 -270h-120v772h120v-772zM280 1456v-758h-120v758h120z" />
    <glyph glyph-name="section" unicode="&#xa7;" horiz-adv-x="1240" 
d="M692 133v78q99 0 167.5 29t104.5 78.5t36 109.5q0 55 -19.5 96.5t-66 75.5t-124.5 64.5t-193 64.5q-105 27 -187 59.5t-139 77t-87 106.5t-30 148q0 81 33 147t95 112.5t148.5 72t194.5 25.5q147 0 253 -50t162.5 -146t56.5 -235h-119q0 90 -41 164.5t-119.5 119
t-192.5 44.5q-121 0 -199 -34t-115 -91t-37 -126q0 -56 16.5 -97t57 -73.5t113.5 -61.5t185 -61q112 -30 200 -63t149 -77t93 -107t32 -152q0 -68 -30.5 -123.5t-86.5 -94.5t-135 -59.5t-176 -20.5zM519 852v-77q-100 0 -164 -29t-95 -79.5t-31 -113.5q0 -57 17.5 -99
t62 -75t123 -62.5t199.5 -63.5q106 -29 188.5 -62t139.5 -76.5t86.5 -105t29.5 -148.5q0 -84 -33 -150t-94.5 -112t-148 -70t-192.5 -24q-93 0 -182.5 22t-162.5 72t-116 133t-43 204l120 2q0 -94 34 -157.5t90.5 -101.5t124.5 -54.5t135 -16.5q111 0 189 33t118.5 89.5
t40.5 128.5q0 52 -17 92t-58 73t-113 62.5t-181 59.5q-109 28 -197.5 62t-150.5 80t-95.5 110t-33.5 153q0 70 29 125.5t82.5 94.5t129 60t169.5 21z" />
    <glyph glyph-name="dieresis" unicode="&#xa8;" horiz-adv-x="882" 
d="M138 1396q0 34 22 58t60 24t60.5 -24t22.5 -58q0 -33 -22.5 -56t-60.5 -23t-60 23t-22 56zM576 1395q0 34 21.5 58t60.5 24q38 0 60.5 -24t22.5 -58q0 -33 -22.5 -56t-60.5 -23q-39 0 -60.5 23t-21.5 56z" />
    <glyph glyph-name="copyright" unicode="&#xa9;" horiz-adv-x="1638" 
d="M1023 607h99q0 -157 -85 -235.5t-230 -78.5q-100 0 -175 49t-116.5 136t-41.5 202v97q0 115 41.5 202t116.5 136t175 49q145 0 230.5 -78t85.5 -235h-99q0 115 -55.5 169t-161.5 54q-75 0 -127 -39t-79 -106t-27 -151v-98q0 -84 27 -151t79 -105.5t127 -38.5
q106 0 161 52.5t55 169.5zM193 729q0 -139 48.5 -259.5t135 -211t199.5 -141.5t242 -51q128 0 241 51t199 141.5t134.5 211t48.5 259.5q0 140 -48.5 260t-134.5 210t-199 140t-241 50q-129 0 -242 -50t-199.5 -140t-135 -210t-48.5 -260zM108 729q0 159 55 295t153 237.5
t226.5 158t275.5 56.5t275.5 -56.5t226 -158t152.5 -237.5t55 -295t-55 -295t-152.5 -238.5t-226 -159.5t-275.5 -57t-275.5 57t-226.5 159.5t-153 238.5t-55 295z" />
    <glyph glyph-name="ordfeminine" unicode="&#xaa;" horiz-adv-x="907" 
d="M626 862v340q0 56 -17.5 95.5t-53.5 60.5t-90 21q-89 0 -141 -35t-52 -107l-107 7q0 68 37.5 120.5t105 82.5t157.5 30q80 0 141 -31t95 -92t34 -153v-314q0 -49 6.5 -93t19.5 -88h-111q-24 73 -24 156zM655 1141l1 -83h-168q-72 0 -121.5 -17t-75 -49.5t-25.5 -78.5
q0 -56 38 -90.5t123 -34.5q51 0 100.5 24.5t82.5 59.5t33 67l20 -82q-14 -37 -48.5 -75.5t-87 -64t-120.5 -25.5q-121 0 -185 59.5t-64 157.5q0 74 37.5 125.5t111 79t180.5 27.5h168z" />
    <glyph glyph-name="guillemotleft" unicode="&#xab;" horiz-adv-x="933" 
d="M524 926l-279 -393l-122 1v13l295 379h106zM245 542l279 -394h-106l-295 380v13zM833 926l-279 -393l-122 1v13l295 379h106zM554 542l279 -394h-106l-295 380v13z" />
    <glyph glyph-name="logicalnot" unicode="&#xac;" horiz-adv-x="1118" 
d="M937 777v-107h-812v107h812zM937 716v-330h-120v330h120z" />
    <glyph glyph-name="uni00AD" unicode="&#xad;" horiz-adv-x="587" 
d="M529 694v-103h-479v103h479z" />
    <glyph glyph-name="registered" unicode="&#xae;" horiz-adv-x="1642" 
d="M849 667h-237l-2 92h222q50 0 92.5 17.5t68 51t25.5 83.5q0 56 -19 91t-64.5 51.5t-123.5 16.5h-160v-748h-98v839h258q97 0 165.5 -27.5t104 -82.5t35.5 -138q0 -54 -23.5 -96.5t-68 -73t-107.5 -48.5q-3 -1 -6.5 -4t-6.5 -3q-17 -10 -21.5 -14.5t-9 -5.5t-24.5 -1z
M839 667l15 67q144 0 196.5 -65t52.5 -159v-45q0 -37 4 -70.5t13 -56.5v-16h-102q-10 26 -12 74t-2 70v43q0 83 -37.5 120.5t-127.5 37.5zM188 729q0 -139 49 -259.5t135 -211t199 -141.5t242 -51t242 51t199 141.5t134.5 211t48.5 259.5q0 140 -48.5 260t-134.5 210
t-199 140t-242 50t-242 -50t-199 -140t-135 -210t-49 -260zM103 729q0 159 55 295t153 237.5t226.5 158t275.5 56.5t275.5 -56.5t226.5 -158t153 -237.5t55 -295t-55 -295t-153 -238.5t-226.5 -159.5t-275.5 -57t-275.5 57t-226.5 159.5t-153 238.5t-55 295z" />
    <glyph glyph-name="macron" unicode="&#xaf;" horiz-adv-x="875" 
d="M757 1441v-98h-619v98h619z" />
    <glyph glyph-name="degree" unicode="&#xb0;" horiz-adv-x="774" 
d="M144 1227q0 68 33.5 125t89 91t122.5 34t121.5 -34t87.5 -91t33 -125q0 -69 -33 -125t-87.5 -89t-121.5 -33t-122.5 33t-89 89t-33.5 125zM233 1227q0 -67 45.5 -111t110.5 -44q66 0 109 44t43 111q0 68 -43 113t-109 45q-65 0 -110.5 -45t-45.5 -113z" />
    <glyph glyph-name="plusminus" unicode="&#xb1;" horiz-adv-x="1086" 
d="M1001 830v-103h-916v103h916zM610 1267v-978h-111v978h111zM964 103v-103h-835v103h835z" />
    <glyph glyph-name="uni00B2" unicode="&#xb2;" 
d="M667 754v-88h-570v76l289 283q50 48 79.5 86t43 69t13.5 58q0 63 -40.5 101t-118.5 38q-90 0 -135.5 -45.5t-45.5 -115.5h-106q0 69 34.5 125.5t98 90.5t152.5 34q83 0 143 -27.5t92.5 -78t32.5 -120.5q0 -51 -25 -98t-66.5 -94t-94.5 -97l-213 -197h437z" />
    <glyph glyph-name="uni00B3" unicode="&#xb3;" 
d="M268 1108h78q61 0 101.5 18t61.5 48.5t21 67.5q0 57 -40 96t-127 39q-73 0 -122.5 -35t-49.5 -96h-105q0 67 36.5 116.5t99.5 76.5t139 27q83 0 144.5 -26t96 -75t34.5 -120q0 -52 -32.5 -96.5t-93.5 -71.5t-147 -27h-95v58zM268 1026v59h95q97 0 161 -25t96 -70.5
t32 -108.5q0 -71 -37.5 -122t-102.5 -77.5t-148 -26.5q-72 0 -139 24.5t-110 75.5t-43 131h105q0 -62 53.5 -102.5t136.5 -40.5q86 0 132.5 38.5t46.5 103.5q0 51 -25 82t-70 45t-105 14h-78z" />
    <glyph glyph-name="acute" unicode="&#xb4;" horiz-adv-x="577" 
d="M125 1256l191 280h145l-232 -280h-104z" />
    <glyph glyph-name="mu" unicode="&#xb5;" horiz-adv-x="1141" 
d="M860 1082h120v-1082h-109l-11 250v832zM878 503l60 2q0 -114 -21.5 -209.5t-68 -166.5t-119.5 -110t-176 -39q-80 0 -149 27t-117.5 91t-69.5 174l-13 178h77q0 -112 21.5 -184t58.5 -112t84 -55.5t100 -15.5q102 0 167.5 31.5t101.5 89t50 134t14 165.5zM163 1082h118
v-1498h-118v1498z" />
    <glyph glyph-name="paragraph" unicode="&#xb6;" horiz-adv-x="974" 
d="M802 0h-120v520h-106q-159 0 -269 60.5t-166.5 166.5t-56.5 241q0 134 56.5 240t166.5 167t269 61h226v-1456z" />
    <glyph glyph-name="periodcentered" unicode="&#xb7;" horiz-adv-x="504" 
d="M164 718q0 35 22.5 59.5t61.5 24.5q40 0 63 -24.5t23 -59.5t-23 -58.5t-63 -23.5q-39 0 -61.5 23.5t-22.5 58.5z" />
    <glyph glyph-name="cedilla" unicode="&#xb8;" horiz-adv-x="499" 
d="M153 0h93l-11 -64q62 -9 113.5 -45.5t51.5 -125.5q0 -45 -19.5 -82t-57.5 -63t-92.5 -40.5t-124.5 -14.5l-7 78q50 0 96 12.5t75.5 39t29.5 68.5q0 39 -19 60.5t-58 32.5t-98 16z" />
    <glyph glyph-name="uni00B9" unicode="&#xb9;" 
d="M464 1456v-790h-105v661l-232 -69v91l324 107h13z" />
    <glyph glyph-name="ordmasculine" unicode="&#xba;" horiz-adv-x="923" 
d="M136 1034v99q0 100 39.5 177.5t111.5 122t172 44.5t172.5 -44.5t111.5 -122t39 -177.5v-99q0 -100 -39 -177.5t-111 -121.5t-171 -44q-101 0 -173.5 44t-112 121.5t-39.5 177.5zM244 1133v-99q0 -69 23 -125t71 -89t123 -33q72 0 119.5 33t71 89t23.5 125v99
q0 68 -24 124t-71.5 89t-120.5 33q-72 0 -120 -33t-71.5 -89t-23.5 -124z" />
    <glyph glyph-name="guillemotright" unicode="&#xbb;" horiz-adv-x="929" 
d="M116 162l279 393l122 -1v-13l-295 -379h-106zM116 945h106l295 -385v-13l-122 -1zM435 162l279 393l122 -1v-13l-295 -379h-106zM435 945h106l295 -385v-13l-122 -1z" />
    <glyph glyph-name="onequarter" unicode="&#xbc;" horiz-adv-x="1484" 
d="M452 1454v-790h-105v662l-232 -69v91l324 106h13zM1126 1267l-711 -1138l-74 49l711 1138zM1400 277v-90h-631l-4 67l397 535h85l-110 -181l-258 -331h521zM1272 789v-789h-105v789h105z" />
    <glyph glyph-name="onehalf" unicode="&#xbd;" horiz-adv-x="1549" 
d="M1083 1267l-711 -1138l-74 49l711 1138zM438 1454v-790h-105v662l-232 -69v91l324 106h13zM1437 89v-89h-570v76l289 283q50 48 79.5 86t43 69t13.5 59q0 62 -40.5 100.5t-118.5 38.5q-90 0 -135.5 -46t-45.5 -115h-106q0 68 34.5 124.5t98 90.5t152.5 34q83 0 143 -27
t92.5 -77.5t32.5 -121.5q0 -51 -25 -98t-66.5 -93.5t-94.5 -96.5l-213 -197h437z" />
    <glyph glyph-name="threequarters" unicode="&#xbe;" horiz-adv-x="1590" 
d="M1271 1267l-711 -1138l-74 49l711 1138zM1516 277v-90h-631l-4 67l397 535h85l-110 -181l-258 -331h521zM1388 789v-789h-105v789h105zM315 1109h78q61 0 101.5 17.5t61.5 48t21 68.5q0 56 -40 95.5t-127 39.5q-73 0 -122.5 -35.5t-49.5 -95.5h-105q0 67 36.5 116
t99.5 76t139 27q83 0 144.5 -25.5t96 -75t34.5 -120.5q0 -52 -32.5 -96.5t-93.5 -71.5t-147 -27h-95v59zM315 1027v58h95q97 0 161 -24.5t96 -70t32 -108.5q0 -72 -37.5 -123t-102.5 -77.5t-148 -26.5q-72 0 -139 24.5t-110 76t-43 130.5h105q0 -62 53.5 -102.5t136.5 -40.5
q86 0 132.5 38.5t46.5 103.5q0 51 -25 82t-70 45.5t-105 14.5h-78z" />
    <glyph glyph-name="questiondown" unicode="&#xbf;" horiz-adv-x="941" 
d="M432 688h120q-1 -85 -12.5 -137t-43 -96t-91.5 -104q-52 -52 -96.5 -101t-72.5 -110t-28 -148q0 -85 30.5 -145t89 -91.5t142.5 -31.5q78 0 136.5 31t92 88t34.5 137h120q-1 -117 -52.5 -198.5t-137.5 -123t-193 -41.5q-121 0 -206 45.5t-130.5 129.5t-45.5 198
q0 96 34.5 174t91 145t123.5 129q43 37 63 74t26 80t6 96zM568 1022q0 -34 -22 -57.5t-60 -23.5q-39 0 -61 23.5t-22 57.5q0 33 22 56.5t61 23.5q38 0 60 -23.5t22 -56.5z" />
    <glyph glyph-name="Agrave" unicode="&#xc0;" horiz-adv-x="1280" 
d="M663 1369l-504 -1369h-128l550 1456h90zM1121 0l-504 1369l-7 87h89l551 -1456h-129zM1032 514v-106h-774v106h774zM526 1851l191 -280h-109l-227 280h145z" />
    <glyph glyph-name="Aacute" unicode="&#xc1;" horiz-adv-x="1280" 
d="M663 1369l-504 -1369h-128l550 1456h90zM1121 0l-504 1369l-7 87h89l551 -1456h-129zM1032 514v-106h-774v106h774zM572 1571l191 280h145l-232 -280h-104z" />
    <glyph glyph-name="Acircumflex" unicode="&#xc2;" horiz-adv-x="1280" 
d="M663 1369l-504 -1369h-128l550 1456h90zM1121 0l-504 1369l-7 87h89l551 -1456h-129zM1032 514v-106h-774v106h774zM681 1842l241 -258v-10h-111l-169 182l-167 -182h-108v12l238 256h76z" />
    <glyph glyph-name="Atilde" unicode="&#xc3;" horiz-adv-x="1280" 
d="M663 1369l-504 -1369h-128l550 1456h90zM1121 0l-504 1369l-7 87h89l551 -1456h-129zM1032 514v-106h-774v106h774zM894 1817l90 -5q0 -64 -26 -112.5t-70.5 -75.5t-99.5 -27q-52 0 -86.5 17t-61.5 38.5t-56.5 38t-72.5 16.5q-46 0 -78 -31.5t-32 -86.5l-90 3
q0 64 26 112t70.5 74.5t98.5 26.5q48 0 82 -16.5t63.5 -38t60.5 -38t72 -16.5q46 0 78 33t32 88z" />
    <glyph glyph-name="Adieresis" unicode="&#xc4;" horiz-adv-x="1280" 
d="M663 1369l-504 -1369h-128l550 1456h90zM1121 0l-504 1369l-7 87h89l551 -1456h-129zM1032 514v-106h-774v106h774zM344 1711q0 34 22 58t60 24t60.5 -24t22.5 -58q0 -33 -22.5 -56t-60.5 -23t-60 23t-22 56zM782 1710q0 34 21.5 58t60.5 24q38 0 60.5 -24t22.5 -58
q0 -33 -22.5 -56t-60.5 -23q-39 0 -60.5 23t-21.5 56z" />
    <glyph glyph-name="Aring" unicode="&#xc5;" horiz-adv-x="1280" 
d="M663 1369l-504 -1369h-128l550 1456h90zM1121 0l-504 1369l-7 87h89l551 -1456h-129zM1032 514v-106h-774v106h774zM451 1717q0 53 25.5 96.5t69 69t98.5 25.5q81 0 137 -55.5t56 -135.5q0 -54 -26 -96.5t-69.5 -66.5t-97.5 -24q-82 0 -137.5 53t-55.5 134zM527 1717
q0 -48 33 -82t84 -34t83.5 33.5t32.5 82.5q0 50 -32.5 84.5t-83.5 34.5t-84 -34.5t-33 -84.5z" />
    <glyph glyph-name="AE" unicode="&#xc6;" horiz-adv-x="1865" 
d="M967 1358l-803 -1358h-146l881 1456h84zM1059 503v-114h-696v114h696zM1824 103v-103h-733v103h733zM1065 1456l61 -1456h-120l-61 1456h120zM1681 810v-103h-630v103h630zM1763 1456v-103h-733v103h733z" />
    <glyph glyph-name="Ccedilla" unicode="&#xc7;" horiz-adv-x="1330" 
d="M1092 455h123q-15 -148 -80.5 -254t-180 -163.5t-274.5 -57.5q-124 0 -225 47t-173 134t-111 208t-39 268v182q0 148 39 268.5t112 207.5t175.5 134t229.5 47q156 0 268.5 -56.5t178 -162.5t80.5 -256h-123q-14 118 -62 200t-132 125.5t-210 43.5q-101 0 -181.5 -39
t-136.5 -111.5t-85.5 -173.5t-29.5 -225v-184q0 -119 28.5 -220t82.5 -175t133 -115t181 -41q129 0 215 41t134 123.5t63 204.5zM636 -10h93l-11 -64q62 -9 113.5 -45.5t51.5 -125.5q0 -45 -19.5 -82t-57.5 -63t-92.5 -40.5t-124.5 -14.5l-7 78q50 0 96 12.5t75.5 39
t29.5 68.5q0 39 -19 60.5t-58 32.5t-98 16z" />
    <glyph glyph-name="Egrave" unicode="&#xc8;" horiz-adv-x="1165" 
d="M1090 106v-106h-819v106h819zM308 1456v-1456h-123v1456h123zM988 803v-105h-717v105h717zM1085 1456v-106h-814v106h814zM503 1857l191 -280h-109l-227 280h145z" />
    <glyph glyph-name="Eacute" unicode="&#xc9;" horiz-adv-x="1165" 
d="M1090 106v-106h-819v106h819zM308 1456v-1456h-123v1456h123zM988 803v-105h-717v105h717zM1085 1456v-106h-814v106h814zM549 1577l191 280h145l-232 -280h-104z" />
    <glyph glyph-name="Ecircumflex" unicode="&#xca;" horiz-adv-x="1165" 
d="M1090 106v-106h-819v106h819zM308 1456v-1456h-123v1456h123zM988 803v-105h-717v105h717zM1085 1456v-106h-814v106h814zM658 1848l241 -258v-10h-111l-169 182l-167 -182h-108v12l238 256h76z" />
    <glyph glyph-name="Edieresis" unicode="&#xcb;" horiz-adv-x="1165" 
d="M1090 106v-106h-819v106h819zM308 1456v-1456h-123v1456h123zM988 803v-105h-717v105h717zM1085 1456v-106h-814v106h814zM321 1717q0 34 22 58t60 24t60.5 -24t22.5 -58q0 -33 -22.5 -56t-60.5 -23t-60 23t-22 56zM759 1716q0 34 21.5 58t60.5 24q38 0 60.5 -24
t22.5 -58q0 -33 -22.5 -56t-60.5 -23q-39 0 -60.5 23t-21.5 56z" />
    <glyph glyph-name="Igrave" unicode="&#xcc;" horiz-adv-x="546" 
d="M335 1456v-1456h-123v1456h123zM157 1857l191 -280h-109l-227 280h145z" />
    <glyph glyph-name="Iacute" unicode="&#xcd;" horiz-adv-x="546" 
d="M335 1456v-1456h-123v1456h123zM203 1577l191 280h145l-232 -280h-104z" />
    <glyph glyph-name="Icircumflex" unicode="&#xce;" horiz-adv-x="546" 
d="M335 1456v-1456h-123v1456h123zM312 1848l241 -258v-10h-111l-169 182l-167 -182h-108v12l238 256h76z" />
    <glyph glyph-name="Idieresis" unicode="&#xcf;" horiz-adv-x="546" 
d="M335 1456v-1456h-123v1456h123zM-25 1717q0 34 22 58t60 24t60.5 -24t22.5 -58q0 -33 -22.5 -56t-60.5 -23t-60 23t-22 56zM413 1716q0 34 21.5 58t60.5 24q38 0 60.5 -24t22.5 -58q0 -33 -22.5 -56t-60.5 -23q-39 0 -60.5 23t-21.5 56z" />
    <glyph glyph-name="Eth" unicode="&#xd0;" horiz-adv-x="1372" 
d="M613 0h-329l2 106h327q157 0 270.5 70t175.5 195.5t62 290.5v135q0 126 -35.5 228t-101.5 174.5t-157.5 111.5t-204.5 39h-344v106h344q136 0 250 -46.5t197.5 -134t129 -209.5t45.5 -272v-132q0 -150 -45.5 -272t-129.5 -209t-199.5 -134t-256.5 -47zM338 1456v-1456
h-123v1456h123zM676 792v-103h-612v103h612z" />
    <glyph glyph-name="Ntilde" unicode="&#xd1;" horiz-adv-x="1455" 
d="M1269 1456v-1456h-124l-836 1244v-1244h-124v1456h124l838 -1243v1243h122zM978 1817l90 -5q0 -64 -26 -112.5t-70.5 -75.5t-99.5 -27q-52 0 -86.5 17t-61.5 38.5t-56.5 38t-72.5 16.5q-46 0 -78 -31.5t-32 -86.5l-90 3q0 64 26 112t70.5 74.5t98.5 26.5q48 0 82 -16.5
t63.5 -38t60.5 -38t72 -16.5q46 0 78 33t32 88z" />
    <glyph glyph-name="Ograve" unicode="&#xd2;" horiz-adv-x="1387" 
d="M1261 806v-155q0 -153 -40 -277t-114 -212t-178.5 -135t-233.5 -47q-127 0 -231.5 47t-180 135t-116.5 212t-41 277v155q0 153 40.5 276.5t115.5 211.5t179.5 135t231.5 47q129 0 233.5 -47t179.5 -135t115 -211.5t40 -276.5zM1138 651v157q0 129 -29.5 232t-87 176
t-140.5 112t-188 39q-104 0 -186 -39t-139.5 -112t-88 -176t-30.5 -232v-157q0 -130 31 -234t89 -177t140 -112t186 -39q106 0 188 39t139 112t86.5 177t29.5 234zM575 1863l191 -280h-109l-227 280h145z" />
    <glyph glyph-name="Oacute" unicode="&#xd3;" horiz-adv-x="1387" 
d="M1261 806v-155q0 -153 -40 -277t-114 -212t-178.5 -135t-233.5 -47q-127 0 -231.5 47t-180 135t-116.5 212t-41 277v155q0 153 40.5 276.5t115.5 211.5t179.5 135t231.5 47q129 0 233.5 -47t179.5 -135t115 -211.5t40 -276.5zM1138 651v157q0 129 -29.5 232t-87 176
t-140.5 112t-188 39q-104 0 -186 -39t-139.5 -112t-88 -176t-30.5 -232v-157q0 -130 31 -234t89 -177t140 -112t186 -39q106 0 188 39t139 112t86.5 177t29.5 234zM621 1583l191 280h145l-232 -280h-104z" />
    <glyph glyph-name="Ocircumflex" unicode="&#xd4;" horiz-adv-x="1387" 
d="M1261 806v-155q0 -153 -40 -277t-114 -212t-178.5 -135t-233.5 -47q-127 0 -231.5 47t-180 135t-116.5 212t-41 277v155q0 153 40.5 276.5t115.5 211.5t179.5 135t231.5 47q129 0 233.5 -47t179.5 -135t115 -211.5t40 -276.5zM1138 651v157q0 129 -29.5 232t-87 176
t-140.5 112t-188 39q-104 0 -186 -39t-139.5 -112t-88 -176t-30.5 -232v-157q0 -130 31 -234t89 -177t140 -112t186 -39q106 0 188 39t139 112t86.5 177t29.5 234zM730 1854l241 -258v-10h-111l-169 182l-167 -182h-108v12l238 256h76z" />
    <glyph glyph-name="Otilde" unicode="&#xd5;" horiz-adv-x="1387" 
d="M1261 806v-155q0 -153 -40 -277t-114 -212t-178.5 -135t-233.5 -47q-127 0 -231.5 47t-180 135t-116.5 212t-41 277v155q0 153 40.5 276.5t115.5 211.5t179.5 135t231.5 47q129 0 233.5 -47t179.5 -135t115 -211.5t40 -276.5zM1138 651v157q0 129 -29.5 232t-87 176
t-140.5 112t-188 39q-104 0 -186 -39t-139.5 -112t-88 -176t-30.5 -232v-157q0 -130 31 -234t89 -177t140 -112t186 -39q106 0 188 39t139 112t86.5 177t29.5 234zM943 1828l90 -5q0 -64 -26 -112.5t-70.5 -75.5t-99.5 -27q-52 0 -86.5 17t-61.5 38.5t-56.5 38t-72.5 16.5
q-46 0 -78 -31.5t-32 -86.5l-90 3q0 64 26 112t70.5 74.5t98.5 26.5q48 0 82 -16.5t63.5 -38t60.5 -38t72 -16.5q46 0 78 33t32 88z" />
    <glyph glyph-name="Odieresis" unicode="&#xd6;" horiz-adv-x="1387" 
d="M1261 806v-155q0 -153 -40 -277t-114 -212t-178.5 -135t-233.5 -47q-127 0 -231.5 47t-180 135t-116.5 212t-41 277v155q0 153 40.5 276.5t115.5 211.5t179.5 135t231.5 47q129 0 233.5 -47t179.5 -135t115 -211.5t40 -276.5zM1138 651v157q0 129 -29.5 232t-87 176
t-140.5 112t-188 39q-104 0 -186 -39t-139.5 -112t-88 -176t-30.5 -232v-157q0 -130 31 -234t89 -177t140 -112t186 -39q106 0 188 39t139 112t86.5 177t29.5 234zM393 1723q0 34 22 58t60 24t60.5 -24t22.5 -58q0 -33 -22.5 -56t-60.5 -23t-60 23t-22 56zM831 1722
q0 34 21.5 58t60.5 24q38 0 60.5 -24t22.5 -58q0 -33 -22.5 -56t-60.5 -23q-39 0 -60.5 23t-21.5 56z" />
    <glyph glyph-name="multiply" unicode="&#xd7;" horiz-adv-x="1073" 
d="M173 103l-79 80l779 795l79 -81zM888 103l-779 794l79 81l779 -795z" />
    <glyph glyph-name="Oslash" unicode="&#xd8;" horiz-adv-x="1387" 
d="M1275 1506l-1000 -1590h-104l1001 1590h103zM1261 806v-155q0 -153 -40 -277t-114 -212t-178.5 -135t-233.5 -47q-102 0 -189.5 30.5t-157.5 88t-119.5 140t-76 186t-26.5 226.5v155q0 153 40.5 276.5t115.5 211.5t179.5 135t231.5 47q103 0 191 -30.5t157.5 -88
t118.5 -139.5t75 -186t26 -226zM1138 651v157q0 103 -19 189.5t-56.5 155t-91.5 116.5t-124 73t-154 25q-104 0 -186 -39t-139.5 -112t-88 -176t-30.5 -232v-157q0 -104 20 -191.5t58 -156t92 -116.5t123.5 -73t152.5 -25q106 0 188 39t139 112t86.5 177t29.5 234z" />
    <glyph glyph-name="Ugrave" unicode="&#xd9;" horiz-adv-x="1347" 
d="M1064 1456h123v-986q0 -163 -69 -272t-185.5 -163.5t-257.5 -54.5q-145 0 -261 54.5t-183.5 163.5t-67.5 272v986h122v-986q0 -127 50.5 -212.5t138.5 -128.5t201 -43t201 43t138 128.5t50 212.5v986zM566 1851l191 -280h-109l-227 280h145z" />
    <glyph glyph-name="Uacute" unicode="&#xda;" horiz-adv-x="1347" 
d="M1064 1456h123v-986q0 -163 -69 -272t-185.5 -163.5t-257.5 -54.5q-145 0 -261 54.5t-183.5 163.5t-67.5 272v986h122v-986q0 -127 50.5 -212.5t138.5 -128.5t201 -43t201 43t138 128.5t50 212.5v986zM612 1571l191 280h145l-232 -280h-104z" />
    <glyph glyph-name="Ucircumflex" unicode="&#xdb;" horiz-adv-x="1347" 
d="M1064 1456h123v-986q0 -163 -69 -272t-185.5 -163.5t-257.5 -54.5q-145 0 -261 54.5t-183.5 163.5t-67.5 272v986h122v-986q0 -127 50.5 -212.5t138.5 -128.5t201 -43t201 43t138 128.5t50 212.5v986zM721 1842l241 -258v-10h-111l-169 182l-167 -182h-108v12l238 256h76
z" />
    <glyph glyph-name="Udieresis" unicode="&#xdc;" horiz-adv-x="1347" 
d="M1064 1456h123v-986q0 -163 -69 -272t-185.5 -163.5t-257.5 -54.5q-145 0 -261 54.5t-183.5 163.5t-67.5 272v986h122v-986q0 -127 50.5 -212.5t138.5 -128.5t201 -43t201 43t138 128.5t50 212.5v986zM384 1711q0 34 22 58t60 24t60.5 -24t22.5 -58q0 -33 -22.5 -56
t-60.5 -23t-60 23t-22 56zM822 1710q0 34 21.5 58t60.5 24q38 0 60.5 -24t22.5 -58q0 -33 -22.5 -56t-60.5 -23q-39 0 -60.5 23t-21.5 56z" />
    <glyph glyph-name="Yacute" unicode="&#xdd;" horiz-adv-x="1227" 
d="M171 1456l441 -792l444 792h143l-526 -907v-549h-123v549l-526 907h147zM543 1565l191 280h145l-232 -280h-104z" />
    <glyph glyph-name="Thorn" unicode="&#xde;" horiz-adv-x="1215" 
d="M184 1456h119v-1456h-119v1456zM239 1153h389q152 0 256 -54t158 -147.5t54 -213.5q0 -119 -54 -212.5t-158 -147.5t-256 -54h-366v103h366q124 0 201 46t112.5 117t35.5 146q0 79 -35.5 151t-112.5 118t-201 46h-337z" />
    <glyph glyph-name="germandbls" unicode="&#xdf;" horiz-adv-x="1201" 
d="M271 1128v-1128h-119v1128q0 102 25 180t72 130.5t114 79.5t150 27q94 0 172 -35.5t125 -104t47 -168.5q0 -75 -19 -125.5t-43 -91.5t-43 -86t-19 -109q0 -59 36.5 -104.5t91 -86.5t108.5 -86.5t90.5 -103t36.5 -137.5q0 -107 -53.5 -180t-139.5 -110t-183 -37
q-56 0 -117 11t-111.5 29.5t-76.5 39.5l33 102q38 -26 111 -53t148 -27q86 0 146.5 31t92 82t31.5 112q0 63 -36.5 110.5t-90.5 89t-108.5 86t-91 100.5t-36.5 134q0 68 19 117t43.5 90.5t43.5 87.5t19 108q0 65 -30 112.5t-79 73.5t-107 26q-77 0 -133.5 -32t-87.5 -101.5
t-31 -180.5z" />
    <glyph glyph-name="agrave" unicode="&#xe0;" horiz-adv-x="1098" 
d="M815 194v558q0 77 -32 133t-94 86t-153 30q-84 0 -149.5 -29.5t-103 -79t-37.5 -109.5l-119 1q0 61 29.5 118t84.5 102t131.5 71.5t169.5 26.5q115 0 203.5 -39t139 -117t50.5 -196v-523q0 -56 8.5 -116t24.5 -98v-13h-128q-12 36 -18.5 90.5t-6.5 103.5zM843 630l2 -92
h-234q-92 0 -164.5 -16.5t-122.5 -47.5t-76.5 -75.5t-26.5 -100.5q0 -58 29 -106t84 -76t130 -28q99 0 175.5 36.5t126.5 96.5t67 131l52 -69q-13 -49 -47.5 -102t-89 -98.5t-129 -74t-169.5 -28.5q-105 0 -184 40.5t-122 110t-43 157.5q0 79 34 142.5t98 108t155.5 68
t205.5 23.5h249zM463 1536l191 -280h-109l-227 280h145z" />
    <glyph glyph-name="aacute" unicode="&#xe1;" horiz-adv-x="1098" 
d="M815 194v558q0 77 -32 133t-94 86t-153 30q-84 0 -149.5 -29.5t-103 -79t-37.5 -109.5l-119 1q0 61 29.5 118t84.5 102t131.5 71.5t169.5 26.5q115 0 203.5 -39t139 -117t50.5 -196v-523q0 -56 8.5 -116t24.5 -98v-13h-128q-12 36 -18.5 90.5t-6.5 103.5zM843 630l2 -92
h-234q-92 0 -164.5 -16.5t-122.5 -47.5t-76.5 -75.5t-26.5 -100.5q0 -58 29 -106t84 -76t130 -28q99 0 175.5 36.5t126.5 96.5t67 131l52 -69q-13 -49 -47.5 -102t-89 -98.5t-129 -74t-169.5 -28.5q-105 0 -184 40.5t-122 110t-43 157.5q0 79 34 142.5t98 108t155.5 68
t205.5 23.5h249zM509 1256l191 280h145l-232 -280h-104z" />
    <glyph glyph-name="acircumflex" unicode="&#xe2;" horiz-adv-x="1098" 
d="M815 194v558q0 77 -32 133t-94 86t-153 30q-84 0 -149.5 -29.5t-103 -79t-37.5 -109.5l-119 1q0 61 29.5 118t84.5 102t131.5 71.5t169.5 26.5q115 0 203.5 -39t139 -117t50.5 -196v-523q0 -56 8.5 -116t24.5 -98v-13h-128q-12 36 -18.5 90.5t-6.5 103.5zM843 630l2 -92
h-234q-92 0 -164.5 -16.5t-122.5 -47.5t-76.5 -75.5t-26.5 -100.5q0 -58 29 -106t84 -76t130 -28q99 0 175.5 36.5t126.5 96.5t67 131l52 -69q-13 -49 -47.5 -102t-89 -98.5t-129 -74t-169.5 -28.5q-105 0 -184 40.5t-122 110t-43 157.5q0 79 34 142.5t98 108t155.5 68
t205.5 23.5h249zM618 1527l241 -258v-10h-111l-169 182l-167 -182h-108v12l238 256h76z" />
    <glyph glyph-name="atilde" unicode="&#xe3;" horiz-adv-x="1098" 
d="M815 194v558q0 77 -32 133t-94 86t-153 30q-84 0 -149.5 -29.5t-103 -79t-37.5 -109.5l-119 1q0 61 29.5 118t84.5 102t131.5 71.5t169.5 26.5q115 0 203.5 -39t139 -117t50.5 -196v-523q0 -56 8.5 -116t24.5 -98v-13h-128q-12 36 -18.5 90.5t-6.5 103.5zM843 630l2 -92
h-234q-92 0 -164.5 -16.5t-122.5 -47.5t-76.5 -75.5t-26.5 -100.5q0 -58 29 -106t84 -76t130 -28q99 0 175.5 36.5t126.5 96.5t67 131l52 -69q-13 -49 -47.5 -102t-89 -98.5t-129 -74t-169.5 -28.5q-105 0 -184 40.5t-122 110t-43 157.5q0 79 34 142.5t98 108t155.5 68
t205.5 23.5h249zM831 1501l90 -5q0 -64 -26 -112.5t-70.5 -75.5t-99.5 -27q-52 0 -86.5 17t-61.5 38.5t-56.5 38t-72.5 16.5q-46 0 -78 -31.5t-32 -86.5l-90 3q0 64 26 112t70.5 74.5t98.5 26.5q48 0 82 -16.5t63.5 -38t60.5 -38t72 -16.5q46 0 78 33t32 88z" />
    <glyph glyph-name="adieresis" unicode="&#xe4;" horiz-adv-x="1098" 
d="M815 194v558q0 77 -32 133t-94 86t-153 30q-84 0 -149.5 -29.5t-103 -79t-37.5 -109.5l-119 1q0 61 29.5 118t84.5 102t131.5 71.5t169.5 26.5q115 0 203.5 -39t139 -117t50.5 -196v-523q0 -56 8.5 -116t24.5 -98v-13h-128q-12 36 -18.5 90.5t-6.5 103.5zM843 630l2 -92
h-234q-92 0 -164.5 -16.5t-122.5 -47.5t-76.5 -75.5t-26.5 -100.5q0 -58 29 -106t84 -76t130 -28q99 0 175.5 36.5t126.5 96.5t67 131l52 -69q-13 -49 -47.5 -102t-89 -98.5t-129 -74t-169.5 -28.5q-105 0 -184 40.5t-122 110t-43 157.5q0 79 34 142.5t98 108t155.5 68
t205.5 23.5h249zM281 1396q0 34 22 58t60 24t60.5 -24t22.5 -58q0 -33 -22.5 -56t-60.5 -23t-60 23t-22 56zM719 1395q0 34 21.5 58t60.5 24q38 0 60.5 -24t22.5 -58q0 -33 -22.5 -56t-60.5 -23q-39 0 -60.5 23t-21.5 56z" />
    <glyph glyph-name="aring" unicode="&#xe5;" horiz-adv-x="1098" 
d="M815 194v558q0 77 -32 133t-94 86t-153 30q-84 0 -149.5 -29.5t-103 -79t-37.5 -109.5l-119 1q0 61 29.5 118t84.5 102t131.5 71.5t169.5 26.5q115 0 203.5 -39t139 -117t50.5 -196v-523q0 -56 8.5 -116t24.5 -98v-13h-128q-12 36 -18.5 90.5t-6.5 103.5zM843 630l2 -92
h-234q-92 0 -164.5 -16.5t-122.5 -47.5t-76.5 -75.5t-26.5 -100.5q0 -58 29 -106t84 -76t130 -28q99 0 175.5 36.5t126.5 96.5t67 131l52 -69q-13 -49 -47.5 -102t-89 -98.5t-129 -74t-169.5 -28.5q-105 0 -184 40.5t-122 110t-43 157.5q0 79 34 142.5t98 108t155.5 68
t205.5 23.5h249zM388 1401q0 53 25.5 96.5t69 69t98.5 25.5q81 0 137 -55.5t56 -135.5q0 -54 -26 -96.5t-69.5 -66.5t-97.5 -24q-82 0 -137.5 53t-55.5 134zM464 1401q0 -48 33 -82t84 -34t83.5 33.5t32.5 82.5q0 50 -32.5 84.5t-83.5 34.5t-84 -34.5t-33 -84.5z" />
    <glyph glyph-name="ae" unicode="&#xe6;" horiz-adv-x="1733" 
d="M781 183v537q0 88 -28 150.5t-84.5 95.5t-140.5 33q-92 0 -158.5 -31t-101.5 -84t-35 -118l-119 12q0 70 29.5 129t84 103t130.5 68t170 24q112 0 195 -43t129.5 -128t46.5 -213v-500zM814 633v-97h-287q-108 0 -179 -34.5t-106.5 -90t-35.5 -121.5q0 -62 28.5 -109
t85 -73.5t139.5 -26.5q63 0 123 20.5t108.5 52.5t78.5 66.5t34 63.5l76 -77q-26 -51 -82.5 -104t-145 -88t-210.5 -35q-114 0 -193 38.5t-120.5 109.5t-41.5 166q0 78 28 140.5t83.5 107t137.5 68t190 23.5h289zM1266 -20q-116 0 -205.5 39t-150.5 110.5t-92 168.5t-31 212
v54q0 119 33.5 217.5t94.5 170.5t143 111.5t178 38.5q102 0 180.5 -32t132.5 -92.5t82 -146t28 -193.5v-100h-805v98h685v32q0 92 -32 167t-99 119.5t-172 44.5q-79 0 -141 -33.5t-105 -93.5t-65.5 -138.5t-22.5 -169.5v-54q0 -89 21 -166.5t65 -136t113 -91.5t165 -33
q113 0 191 36t132 82l48 -89q-29 -26 -77 -57t-120.5 -53t-173.5 -22z" />
    <glyph glyph-name="ccedilla" unicode="&#xe7;" horiz-adv-x="1056" 
d="M557 83q75 0 141.5 29t110 85t49.5 138h115q-5 -103 -63 -183t-150.5 -126t-202.5 -46q-114 0 -200.5 41.5t-144.5 115t-87.5 171.5t-29.5 212v42q0 114 29.5 212.5t87.5 172t144 114.5t200 41q116 0 208 -47t148 -133t61 -204h-115q-5 87 -46 150t-108 97t-148 34
q-92 0 -157.5 -35.5t-106 -97t-59 -140t-18.5 -164.5v-42q0 -86 18.5 -164.5t59 -140t106 -97t158.5 -35.5zM497 -10h93l-11 -64q62 -9 113.5 -45.5t51.5 -125.5q0 -45 -19.5 -82t-57.5 -63t-92.5 -40.5t-124.5 -14.5l-7 78q50 0 96 12.5t75.5 39t29.5 68.5q0 39 -19 60.5
t-58 32.5t-98 16z" />
    <glyph glyph-name="egrave" unicode="&#xe8;" horiz-adv-x="1059" 
d="M576 -20q-106 0 -195 39t-154 110t-101 168.5t-36 213.5v43q0 125 37.5 226t102 173.5t148 110.5t176.5 38q103 0 182.5 -36.5t134.5 -103t83 -157t28 -199.5v-73h-819v103h699v13q-2 91 -36.5 170.5t-102 129.5t-169.5 50q-77 0 -140 -32t-108.5 -91.5t-70.5 -141
t-25 -180.5v-43q0 -89 27 -167t76 -136.5t117 -92t151 -33.5q95 0 169.5 35.5t133.5 112.5l75 -58q-36 -52 -88 -95.5t-125 -70t-170 -26.5zM450 1535l191 -280h-109l-227 280h145z" />
    <glyph glyph-name="eacute" unicode="&#xe9;" horiz-adv-x="1059" 
d="M576 -20q-106 0 -195 39t-154 110t-101 168.5t-36 213.5v43q0 125 37.5 226t102 173.5t148 110.5t176.5 38q103 0 182.5 -36.5t134.5 -103t83 -157t28 -199.5v-73h-819v103h699v13q-2 91 -36.5 170.5t-102 129.5t-169.5 50q-77 0 -140 -32t-108.5 -91.5t-70.5 -141
t-25 -180.5v-43q0 -89 27 -167t76 -136.5t117 -92t151 -33.5q95 0 169.5 35.5t133.5 112.5l75 -58q-36 -52 -88 -95.5t-125 -70t-170 -26.5zM496 1255l191 280h145l-232 -280h-104z" />
    <glyph glyph-name="ecircumflex" unicode="&#xea;" horiz-adv-x="1059" 
d="M576 -20q-106 0 -195 39t-154 110t-101 168.5t-36 213.5v43q0 125 37.5 226t102 173.5t148 110.5t176.5 38q103 0 182.5 -36.5t134.5 -103t83 -157t28 -199.5v-73h-819v103h699v13q-2 91 -36.5 170.5t-102 129.5t-169.5 50q-77 0 -140 -32t-108.5 -91.5t-70.5 -141
t-25 -180.5v-43q0 -89 27 -167t76 -136.5t117 -92t151 -33.5q95 0 169.5 35.5t133.5 112.5l75 -58q-36 -52 -88 -95.5t-125 -70t-170 -26.5zM605 1526l241 -258v-10h-111l-169 182l-167 -182h-108v12l238 256h76z" />
    <glyph glyph-name="edieresis" unicode="&#xeb;" horiz-adv-x="1059" 
d="M576 -20q-106 0 -195 39t-154 110t-101 168.5t-36 213.5v43q0 125 37.5 226t102 173.5t148 110.5t176.5 38q103 0 182.5 -36.5t134.5 -103t83 -157t28 -199.5v-73h-819v103h699v13q-2 91 -36.5 170.5t-102 129.5t-169.5 50q-77 0 -140 -32t-108.5 -91.5t-70.5 -141
t-25 -180.5v-43q0 -89 27 -167t76 -136.5t117 -92t151 -33.5q95 0 169.5 35.5t133.5 112.5l75 -58q-36 -52 -88 -95.5t-125 -70t-170 -26.5zM268 1395q0 34 22 58t60 24t60.5 -24t22.5 -58q0 -33 -22.5 -56t-60.5 -23t-60 23t-22 56zM706 1394q0 34 21.5 58t60.5 24
q38 0 60.5 -24t22.5 -58q0 -33 -22.5 -56t-60.5 -23q-39 0 -60.5 23t-21.5 56z" />
    <glyph glyph-name="igrave" unicode="&#xec;" horiz-adv-x="457" 
d="M288 1082v-1082h-119v1082h119zM114 1523l191 -280h-109l-227 280h145z" />
    <glyph glyph-name="iacute" unicode="&#xed;" horiz-adv-x="457" 
d="M288 1082v-1082h-119v1082h119zM160 1243l191 280h145l-232 -280h-104z" />
    <glyph glyph-name="icircumflex" unicode="&#xee;" horiz-adv-x="457" 
d="M288 1082v-1082h-119v1082h119zM269 1514l241 -258v-10h-111l-169 182l-167 -182h-108v12l238 256h76z" />
    <glyph glyph-name="idieresis" unicode="&#xef;" horiz-adv-x="457" 
d="M288 1082v-1082h-119v1082h119zM-68 1383q0 34 22 58t60 24t60.5 -24t22.5 -58q0 -33 -22.5 -56t-60.5 -23t-60 23t-22 56zM370 1382q0 34 21.5 58t60.5 24q38 0 60.5 -24t22.5 -58q0 -33 -22.5 -56t-60.5 -23q-39 0 -60.5 23t-21.5 56z" />
    <glyph glyph-name="eth" unicode="&#xf0;" horiz-adv-x="1192" 
d="M297 1474l38 105q171 -50 304.5 -134.5t226.5 -203t141.5 -272.5t48.5 -345v-89q0 -123 -32.5 -225t-91.5 -176t-139.5 -114t-176.5 -40q-103 0 -188.5 37.5t-147.5 104t-96 155t-34 190.5q0 116 31 208t89 157t138.5 99.5t179.5 34.5q112 0 207.5 -48.5t153.5 -131.5
t58 -188l-50 -4q0 40 -21 86.5t-64 87.5t-108.5 67t-153.5 26q-86 0 -150 -29t-106 -82t-63 -125t-21 -158q0 -71 23 -139t67.5 -123t109.5 -87.5t150 -32.5q73 0 131 33.5t99.5 94.5t63.5 143t22 179v91q0 191 -49.5 332t-137.5 241t-203.5 166.5t-248.5 108.5zM990 1415
l-506 -315l-50 74l505 315z" />
    <glyph glyph-name="ntilde" unicode="&#xf1;" horiz-adv-x="1126" 
d="M276 851v-851h-119v1082h114zM250 608l-53 30q5 96 38 180t89.5 148t133.5 100t170 36q81 0 145 -22t108.5 -69.5t68 -123t23.5 -182.5v-705h-120v706q0 111 -31 174.5t-88 90.5t-135 27q-86 0 -150.5 -37.5t-108 -97t-66.5 -127t-24 -128.5zM827 1500l90 -5
q0 -64 -26 -112.5t-70.5 -75.5t-99.5 -27q-52 0 -86.5 17t-61.5 38.5t-56.5 38t-72.5 16.5q-46 0 -78 -31.5t-32 -86.5l-90 3q0 64 26 112t70.5 74.5t98.5 26.5q48 0 82 -16.5t63.5 -38t60.5 -38t72 -16.5q46 0 78 33t32 88z" />
    <glyph glyph-name="ograve" unicode="&#xf2;" horiz-adv-x="1148" 
d="M91 525v32q0 118 34.5 218t97.5 173t152 113.5t198 40.5q110 0 199.5 -40.5t153 -113.5t97.5 -173t34 -218v-32q0 -118 -34 -217.5t-97.5 -173t-152 -114t-198.5 -40.5t-199 40.5t-152.5 114t-98 173t-34.5 217.5zM211 557v-32q0 -89 23.5 -168.5t70 -141t114.5 -97
t156 -35.5t155.5 35.5t113.5 97t69.5 141t23.5 168.5v32q0 88 -23.5 167t-70 141t-114.5 98t-156 36q-87 0 -154.5 -36t-114 -98t-70 -141t-23.5 -167zM455 1535l191 -280h-109l-227 280h145z" />
    <glyph glyph-name="oacute" unicode="&#xf3;" horiz-adv-x="1148" 
d="M91 525v32q0 118 34.5 218t97.5 173t152 113.5t198 40.5q110 0 199.5 -40.5t153 -113.5t97.5 -173t34 -218v-32q0 -118 -34 -217.5t-97.5 -173t-152 -114t-198.5 -40.5t-199 40.5t-152.5 114t-98 173t-34.5 217.5zM211 557v-32q0 -89 23.5 -168.5t70 -141t114.5 -97
t156 -35.5t155.5 35.5t113.5 97t69.5 141t23.5 168.5v32q0 88 -23.5 167t-70 141t-114.5 98t-156 36q-87 0 -154.5 -36t-114 -98t-70 -141t-23.5 -167zM501 1255l191 280h145l-232 -280h-104z" />
    <glyph glyph-name="ocircumflex" unicode="&#xf4;" horiz-adv-x="1148" 
d="M91 525v32q0 118 34.5 218t97.5 173t152 113.5t198 40.5q110 0 199.5 -40.5t153 -113.5t97.5 -173t34 -218v-32q0 -118 -34 -217.5t-97.5 -173t-152 -114t-198.5 -40.5t-199 40.5t-152.5 114t-98 173t-34.5 217.5zM211 557v-32q0 -89 23.5 -168.5t70 -141t114.5 -97
t156 -35.5t155.5 35.5t113.5 97t69.5 141t23.5 168.5v32q0 88 -23.5 167t-70 141t-114.5 98t-156 36q-87 0 -154.5 -36t-114 -98t-70 -141t-23.5 -167zM610 1526l241 -258v-10h-111l-169 182l-167 -182h-108v12l238 256h76z" />
    <glyph glyph-name="otilde" unicode="&#xf5;" horiz-adv-x="1148" 
d="M91 525v32q0 118 34.5 218t97.5 173t152 113.5t198 40.5q110 0 199.5 -40.5t153 -113.5t97.5 -173t34 -218v-32q0 -118 -34 -217.5t-97.5 -173t-152 -114t-198.5 -40.5t-199 40.5t-152.5 114t-98 173t-34.5 217.5zM211 557v-32q0 -89 23.5 -168.5t70 -141t114.5 -97
t156 -35.5t155.5 35.5t113.5 97t69.5 141t23.5 168.5v32q0 88 -23.5 167t-70 141t-114.5 98t-156 36q-87 0 -154.5 -36t-114 -98t-70 -141t-23.5 -167zM823 1500l90 -5q0 -64 -26 -112.5t-70.5 -75.5t-99.5 -27q-52 0 -86.5 17t-61.5 38.5t-56.5 38t-72.5 16.5
q-46 0 -78 -31.5t-32 -86.5l-90 3q0 64 26 112t70.5 74.5t98.5 26.5q48 0 82 -16.5t63.5 -38t60.5 -38t72 -16.5q46 0 78 33t32 88z" />
    <glyph glyph-name="odieresis" unicode="&#xf6;" horiz-adv-x="1148" 
d="M91 525v32q0 118 34.5 218t97.5 173t152 113.5t198 40.5q110 0 199.5 -40.5t153 -113.5t97.5 -173t34 -218v-32q0 -118 -34 -217.5t-97.5 -173t-152 -114t-198.5 -40.5t-199 40.5t-152.5 114t-98 173t-34.5 217.5zM211 557v-32q0 -89 23.5 -168.5t70 -141t114.5 -97
t156 -35.5t155.5 35.5t113.5 97t69.5 141t23.5 168.5v32q0 88 -23.5 167t-70 141t-114.5 98t-156 36q-87 0 -154.5 -36t-114 -98t-70 -141t-23.5 -167zM273 1395q0 34 22 58t60 24t60.5 -24t22.5 -58q0 -33 -22.5 -56t-60.5 -23t-60 23t-22 56zM711 1394q0 34 21.5 58
t60.5 24q38 0 60.5 -24t22.5 -58q0 -33 -22.5 -56t-60.5 -23q-39 0 -60.5 23t-21.5 56z" />
    <glyph glyph-name="divide" unicode="&#xf7;" horiz-adv-x="1165" 
d="M1070 761v-118h-998v118h998zM496 1089q0 35 22.5 59.5t61.5 24.5q40 0 63 -24.5t23 -59.5t-23 -58.5t-63 -23.5q-39 0 -61.5 23.5t-22.5 58.5zM496 292q0 35 22.5 59.5t61.5 24.5q40 0 63 -24.5t23 -59.5t-23 -59t-63 -24q-39 0 -61.5 24t-22.5 59z" />
    <glyph glyph-name="oslash" unicode="&#xf8;" horiz-adv-x="1141" 
d="M957 1214l-663 -1354h-93l663 1354h93zM90 525v32q0 118 34 218t97.5 173t152.5 113.5t198 40.5q110 0 199 -40.5t152.5 -113.5t97.5 -173t34 -218v-32q0 -118 -34 -217.5t-97 -173t-152 -114t-198 -40.5q-110 0 -199 40.5t-153 114t-98 173t-34 217.5zM209 557v-32
q0 -89 24 -168.5t70 -141t114 -97t157 -35.5q87 0 154.5 35.5t113.5 97t70 141t24 168.5v32q0 88 -24 167t-70.5 141t-114 98t-155.5 36t-155.5 -36t-114 -98t-70 -141t-23.5 -167z" />
    <glyph glyph-name="ugrave" unicode="&#xf9;" horiz-adv-x="1125" 
d="M850 250v832h121v-1082h-116zM872 451l62 2q0 -102 -24 -188.5t-75 -150t-132 -99t-195 -35.5q-79 0 -144.5 23t-112.5 71.5t-72.5 126.5t-25.5 189v692h119v-694q0 -86 19.5 -144.5t54 -93t79.5 -49.5t97 -15q132 0 208.5 50.5t109 134t32.5 180.5zM457 1536l191 -280
h-109l-227 280h145z" />
    <glyph glyph-name="uacute" unicode="&#xfa;" horiz-adv-x="1125" 
d="M850 250v832h121v-1082h-116zM872 451l62 2q0 -102 -24 -188.5t-75 -150t-132 -99t-195 -35.5q-79 0 -144.5 23t-112.5 71.5t-72.5 126.5t-25.5 189v692h119v-694q0 -86 19.5 -144.5t54 -93t79.5 -49.5t97 -15q132 0 208.5 50.5t109 134t32.5 180.5zM503 1256l191 280
h145l-232 -280h-104z" />
    <glyph glyph-name="ucircumflex" unicode="&#xfb;" horiz-adv-x="1125" 
d="M850 250v832h121v-1082h-116zM872 451l62 2q0 -102 -24 -188.5t-75 -150t-132 -99t-195 -35.5q-79 0 -144.5 23t-112.5 71.5t-72.5 126.5t-25.5 189v692h119v-694q0 -86 19.5 -144.5t54 -93t79.5 -49.5t97 -15q132 0 208.5 50.5t109 134t32.5 180.5zM612 1527l241 -258
v-10h-111l-169 182l-167 -182h-108v12l238 256h76z" />
    <glyph glyph-name="udieresis" unicode="&#xfc;" horiz-adv-x="1125" 
d="M850 250v832h121v-1082h-116zM872 451l62 2q0 -102 -24 -188.5t-75 -150t-132 -99t-195 -35.5q-79 0 -144.5 23t-112.5 71.5t-72.5 126.5t-25.5 189v692h119v-694q0 -86 19.5 -144.5t54 -93t79.5 -49.5t97 -15q132 0 208.5 50.5t109 134t32.5 180.5zM275 1396q0 34 22 58
t60 24t60.5 -24t22.5 -58q0 -33 -22.5 -56t-60.5 -23t-60 23t-22 56zM713 1395q0 34 21.5 58t60.5 24q38 0 60.5 -24t22.5 -58q0 -33 -22.5 -56t-60.5 -23q-39 0 -60.5 23t-21.5 56z" />
    <glyph glyph-name="yacute" unicode="&#xfd;" horiz-adv-x="974" 
d="M478 108l337 974h129l-457 -1255q-14 -37 -35.5 -82.5t-56 -87t-86 -68t-125.5 -26.5q-19 0 -49 4.5t-43 9.5l-1 100q11 -2 32 -4t29 -2q65 0 109.5 22t74.5 65.5t53 107.5zM163 1082l345 -929l33 -124l-88 -50l-420 1103h130zM443 1256l191 280h145l-232 -280h-104z" />
    <glyph glyph-name="thorn" unicode="&#xfe;" horiz-adv-x="1151" 
d="M280 1536v-1952h-120v1952h120zM1032 551v-21q0 -121 -28 -221.5t-80.5 -174t-129.5 -114t-175 -40.5q-97 0 -173 30t-130.5 85.5t-87 130.5t-45.5 164v276q15 98 49 178t87.5 138t127.5 89t169 31q99 0 176.5 -38.5t131 -111t81 -174t27.5 -227.5zM911 530v21
q0 95 -19 176t-58.5 141.5t-100.5 94.5t-143 34q-86 0 -146.5 -28.5t-100.5 -75t-63 -101.5t-34 -108v-319q15 -57 41.5 -108t68.5 -90t100.5 -61.5t135.5 -22.5q82 0 142 34.5t99.5 95t58.5 142t19 175.5z" />
    <glyph glyph-name="ydieresis" unicode="&#xff;" horiz-adv-x="974" 
d="M478 108l337 974h129l-457 -1255q-14 -37 -35.5 -82.5t-56 -87t-86 -68t-125.5 -26.5q-19 0 -49 4.5t-43 9.5l-1 100q11 -2 32 -4t29 -2q65 0 109.5 22t74.5 65.5t53 107.5zM163 1082l345 -929l33 -124l-88 -50l-420 1103h130zM215 1396q0 34 22 58t60 24t60.5 -24
t22.5 -58q0 -33 -22.5 -56t-60.5 -23t-60 23t-22 56zM653 1395q0 34 21.5 58t60.5 24q38 0 60.5 -24t22.5 -58q0 -33 -22.5 -56t-60.5 -23q-39 0 -60.5 23t-21.5 56z" />
    <glyph glyph-name="Amacron" unicode="&#x100;" horiz-adv-x="1280" 
d="M663 1369l-504 -1369h-128l550 1456h90zM1121 0l-504 1369l-7 87h89l551 -1456h-129zM1032 514v-106h-774v106h774zM956 1766v-98h-619v98h619z" />
    <glyph glyph-name="amacron" unicode="&#x101;" horiz-adv-x="1098" 
d="M815 194v558q0 77 -32 133t-94 86t-153 30q-84 0 -149.5 -29.5t-103 -79t-37.5 -109.5l-119 1q0 61 29.5 118t84.5 102t131.5 71.5t169.5 26.5q115 0 203.5 -39t139 -117t50.5 -196v-523q0 -56 8.5 -116t24.5 -98v-13h-128q-12 36 -18.5 90.5t-6.5 103.5zM843 630l2 -92
h-234q-92 0 -164.5 -16.5t-122.5 -47.5t-76.5 -75.5t-26.5 -100.5q0 -58 29 -106t84 -76t130 -28q99 0 175.5 36.5t126.5 96.5t67 131l52 -69q-13 -49 -47.5 -102t-89 -98.5t-129 -74t-169.5 -28.5q-105 0 -184 40.5t-122 110t-43 157.5q0 79 34 142.5t98 108t155.5 68
t205.5 23.5h249zM894 1450v-98h-619v98h619z" />
    <glyph glyph-name="Abreve" unicode="&#x102;" horiz-adv-x="1280" 
d="M663 1369l-504 -1369h-128l550 1456h90zM1121 0l-504 1369l-7 87h89l551 -1456h-129zM1032 514v-106h-774v106h774zM828 1809h102q0 -76 -34.5 -134t-99 -91t-154.5 -33q-134 0 -211.5 72t-77.5 186h102q0 -69 42 -120t145 -51q100 0 143 51.5t43 119.5z" />
    <glyph glyph-name="abreve" unicode="&#x103;" horiz-adv-x="1098" 
d="M815 194v558q0 77 -32 133t-94 86t-153 30q-84 0 -149.5 -29.5t-103 -79t-37.5 -109.5l-119 1q0 61 29.5 118t84.5 102t131.5 71.5t169.5 26.5q115 0 203.5 -39t139 -117t50.5 -196v-523q0 -56 8.5 -116t24.5 -98v-13h-128q-12 36 -18.5 90.5t-6.5 103.5zM843 630l2 -92
h-234q-92 0 -164.5 -16.5t-122.5 -47.5t-76.5 -75.5t-26.5 -100.5q0 -58 29 -106t84 -76t130 -28q99 0 175.5 36.5t126.5 96.5t67 131l52 -69q-13 -49 -47.5 -102t-89 -98.5t-129 -74t-169.5 -28.5q-105 0 -184 40.5t-122 110t-43 157.5q0 79 34 142.5t98 108t155.5 68
t205.5 23.5h249zM766 1493h102q0 -76 -34.5 -134t-99 -91t-154.5 -33q-134 0 -211.5 72t-77.5 186h102q0 -69 42 -120t145 -51q100 0 143 51.5t43 119.5z" />
    <glyph glyph-name="Aogonek" unicode="&#x104;" horiz-adv-x="1280" 
d="M663 1369l-504 -1369h-128l550 1456h90zM1121 0l-504 1369l-7 87h89l551 -1456h-129zM1032 514v-106h-774v106h774zM1172 39l59 -39q-45 -34 -86.5 -70.5t-67.5 -77t-26 -86.5q0 -35 18.5 -59.5t67.5 -24.5q36 0 62 11t43 22l15 -85q-22 -15 -56.5 -29.5t-87.5 -14.5
q-74 0 -121.5 42.5t-47.5 127.5q0 50 28 100.5t79.5 97t120.5 85.5z" />
    <glyph glyph-name="aogonek" unicode="&#x105;" horiz-adv-x="1098" 
d="M815 194v558q0 77 -32 133t-94 86t-153 30q-84 0 -149.5 -29.5t-103 -79t-37.5 -109.5l-119 1q0 61 29.5 118t84.5 102t131.5 71.5t169.5 26.5q115 0 203.5 -39t139 -117t50.5 -196v-523q0 -56 8.5 -116t24.5 -98v-13h-128q-12 36 -18.5 90.5t-6.5 103.5zM843 630l2 -92
h-234q-92 0 -164.5 -16.5t-122.5 -47.5t-76.5 -75.5t-26.5 -100.5q0 -58 29 -106t84 -76t130 -28q99 0 175.5 36.5t126.5 96.5t67 131l52 -69q-13 -49 -47.5 -102t-89 -98.5t-129 -74t-169.5 -28.5q-105 0 -184 40.5t-122 110t-43 157.5q0 79 34 142.5t98 108t155.5 68
t205.5 23.5h249zM893 39l59 -39q-45 -34 -86.5 -70.5t-67.5 -77t-26 -86.5q0 -35 18.5 -59.5t67.5 -24.5q36 0 62 11t43 22l15 -85q-22 -15 -56.5 -29.5t-87.5 -14.5q-74 0 -121.5 42.5t-47.5 127.5q0 50 28 100.5t79.5 97t120.5 85.5z" />
    <glyph glyph-name="Cacute" unicode="&#x106;" horiz-adv-x="1330" 
d="M1092 455h123q-15 -148 -80.5 -254t-180 -163.5t-274.5 -57.5q-124 0 -225 47t-173 134t-111 208t-39 268v182q0 148 39 268.5t112 207.5t175.5 134t229.5 47q156 0 268.5 -56.5t178 -162.5t80.5 -256h-123q-14 118 -62 200t-132 125.5t-210 43.5q-101 0 -181.5 -39
t-136.5 -111.5t-85.5 -173.5t-29.5 -225v-184q0 -119 28.5 -220t82.5 -175t133 -115t181 -41q129 0 215 41t134 123.5t63 204.5zM609 1598l191 280h145l-232 -280h-104z" />
    <glyph glyph-name="cacute" unicode="&#x107;" horiz-adv-x="1056" 
d="M557 83q75 0 141.5 29t110 85t49.5 138h115q-5 -103 -63 -183t-150.5 -126t-202.5 -46q-114 0 -200.5 41.5t-144.5 115t-87.5 171.5t-29.5 212v42q0 114 29.5 212.5t87.5 172t144 114.5t200 41q116 0 208 -47t148 -133t61 -204h-115q-5 87 -46 150t-108 97t-148 34
q-92 0 -157.5 -35.5t-106 -97t-59 -140t-18.5 -164.5v-42q0 -86 18.5 -164.5t59 -140t106 -97t158.5 -35.5zM470 1255l191 280h145l-232 -280h-104z" />
    <glyph glyph-name="Ccircumflex" unicode="&#x108;" horiz-adv-x="1330" 
d="M1092 455h123q-15 -148 -80.5 -254t-180 -163.5t-274.5 -57.5q-124 0 -225 47t-173 134t-111 208t-39 268v182q0 148 39 268.5t112 207.5t175.5 134t229.5 47q156 0 268.5 -56.5t178 -162.5t80.5 -256h-123q-14 118 -62 200t-132 125.5t-210 43.5q-101 0 -181.5 -39
t-136.5 -111.5t-85.5 -173.5t-29.5 -225v-184q0 -119 28.5 -220t82.5 -175t133 -115t181 -41q129 0 215 41t134 123.5t63 204.5zM718 1869l241 -258v-10h-111l-169 182l-167 -182h-108v12l238 256h76z" />
    <glyph glyph-name="ccircumflex" unicode="&#x109;" horiz-adv-x="1056" 
d="M557 83q75 0 141.5 29t110 85t49.5 138h115q-5 -103 -63 -183t-150.5 -126t-202.5 -46q-114 0 -200.5 41.5t-144.5 115t-87.5 171.5t-29.5 212v42q0 114 29.5 212.5t87.5 172t144 114.5t200 41q116 0 208 -47t148 -133t61 -204h-115q-5 87 -46 150t-108 97t-148 34
q-92 0 -157.5 -35.5t-106 -97t-59 -140t-18.5 -164.5v-42q0 -86 18.5 -164.5t59 -140t106 -97t158.5 -35.5zM579 1526l241 -258v-10h-111l-169 182l-167 -182h-108v12l238 256h76z" />
    <glyph glyph-name="Cdotaccent" unicode="&#x10a;" horiz-adv-x="1330" 
d="M1092 455h123q-15 -148 -80.5 -254t-180 -163.5t-274.5 -57.5q-124 0 -225 47t-173 134t-111 208t-39 268v182q0 148 39 268.5t112 207.5t175.5 134t229.5 47q156 0 268.5 -56.5t178 -162.5t80.5 -256h-123q-14 118 -62 200t-132 125.5t-210 43.5q-101 0 -181.5 -39
t-136.5 -111.5t-85.5 -173.5t-29.5 -225v-184q0 -119 28.5 -220t82.5 -175t133 -115t181 -41q129 0 215 41t134 123.5t63 204.5zM597 1725q0 33 22 57t60 24t60.5 -24t22.5 -57q0 -34 -22.5 -57t-60.5 -23t-60 23t-22 57z" />
    <glyph glyph-name="cdotaccent" unicode="&#x10b;" horiz-adv-x="1056" 
d="M557 83q75 0 141.5 29t110 85t49.5 138h115q-5 -103 -63 -183t-150.5 -126t-202.5 -46q-114 0 -200.5 41.5t-144.5 115t-87.5 171.5t-29.5 212v42q0 114 29.5 212.5t87.5 172t144 114.5t200 41q116 0 208 -47t148 -133t61 -204h-115q-5 87 -46 150t-108 97t-148 34
q-92 0 -157.5 -35.5t-106 -97t-59 -140t-18.5 -164.5v-42q0 -86 18.5 -164.5t59 -140t106 -97t158.5 -35.5zM458 1382q0 33 22 57t60 24t60.5 -24t22.5 -57q0 -34 -22.5 -57t-60.5 -23t-60 23t-22 57z" />
    <glyph glyph-name="Ccaron" unicode="&#x10c;" horiz-adv-x="1330" 
d="M1092 455h123q-15 -148 -80.5 -254t-180 -163.5t-274.5 -57.5q-124 0 -225 47t-173 134t-111 208t-39 268v182q0 148 39 268.5t112 207.5t175.5 134t229.5 47q156 0 268.5 -56.5t178 -162.5t80.5 -256h-123q-14 118 -62 200t-132 125.5t-210 43.5q-101 0 -181.5 -39
t-136.5 -111.5t-85.5 -173.5t-29.5 -225v-184q0 -119 28.5 -220t82.5 -175t133 -115t181 -41q129 0 215 41t134 123.5t63 204.5zM507 1865l172 -194l172 194h107v-12l-236 -262h-87l-235 263v11h107z" />
    <glyph glyph-name="ccaron" unicode="&#x10d;" horiz-adv-x="1056" 
d="M557 83q75 0 141.5 29t110 85t49.5 138h115q-5 -103 -63 -183t-150.5 -126t-202.5 -46q-114 0 -200.5 41.5t-144.5 115t-87.5 171.5t-29.5 212v42q0 114 29.5 212.5t87.5 172t144 114.5t200 41q116 0 208 -47t148 -133t61 -204h-115q-5 87 -46 150t-108 97t-148 34
q-92 0 -157.5 -35.5t-106 -97t-59 -140t-18.5 -164.5v-42q0 -86 18.5 -164.5t59 -140t106 -97t158.5 -35.5zM368 1522l172 -194l172 194h107v-12l-236 -262h-87l-235 263v11h107z" />
    <glyph glyph-name="Dcaron" unicode="&#x10e;" horiz-adv-x="1342" 
d="M583 0h-329l2 106h327q157 0 270.5 70t175.5 195.5t62 290.5v135q0 126 -35.5 228t-101.5 174.5t-157.5 111.5t-204.5 39h-344v106h344q136 0 250 -46.5t197.5 -134t129 -209.5t45.5 -272v-132q0 -150 -45.5 -272t-129.5 -209t-199.5 -134t-256.5 -47zM308 1456v-1456
h-123v1456h123zM427 1844l172 -194l172 194h107v-12l-236 -262h-87l-235 263v11h107z" />
    <glyph glyph-name="dcaron" unicode="&#x10f;" horiz-adv-x="1288" 
d="M860 210v1326h120v-1536h-112zM109 530v21q0 126 29 227.5t83.5 174t131.5 111t174 38.5q95 0 168 -31t125.5 -89t85 -138t47.5 -178v-267q-12 -91 -44 -168t-85 -133t-127.5 -87t-171.5 -31q-96 0 -173 40.5t-131 114t-83 174t-29 221.5zM230 551v-21q0 -94 19 -175
t58 -141.5t99 -94t141 -33.5q103 0 173 39.5t112 105t61 143.5v310q-12 53 -35 108t-62.5 101.5t-100 75t-146.5 28.5q-82 0 -142.5 -34t-99.5 -94.5t-58 -141.5t-19 -176zM1261 1538v-78q0 -79 -30 -154.5t-86 -127.5l-71 52q36 54 54 107t18 121v80h115z" />
    <glyph glyph-name="Dcroat" unicode="&#x110;" horiz-adv-x="1372" 
d="M613 0h-329l2 106h327q157 0 270.5 70t175.5 195.5t62 290.5v135q0 126 -35.5 228t-101.5 174.5t-157.5 111.5t-204.5 39h-344v106h344q136 0 250 -46.5t197.5 -134t129 -209.5t45.5 -272v-132q0 -150 -45.5 -272t-129.5 -209t-199.5 -134t-256.5 -47zM338 1456v-1456
h-123v1456h123zM676 792v-103h-612v103h612z" />
    <glyph glyph-name="dcroat" unicode="&#x111;" horiz-adv-x="1173" 
d="M860 210v1326h120v-1536h-112zM109 530v21q0 126 29 227.5t83.5 174t131.5 111t174 38.5q95 0 168 -31t125.5 -89t85 -138t47.5 -178v-267q-12 -91 -44 -168t-85 -133t-127.5 -87t-171.5 -31q-96 0 -173 40.5t-131 114t-83 174t-29 221.5zM230 551v-21q0 -94 19 -175
t58 -141.5t99 -94t141 -33.5q103 0 173 39.5t112 105t61 143.5v310q-12 53 -35 108t-62.5 101.5t-100 75t-146.5 28.5q-82 0 -142.5 -34t-99.5 -94.5t-58 -141.5t-19 -176zM1154 1360v-103h-612v103h612z" />
    <glyph glyph-name="Emacron" unicode="&#x112;" horiz-adv-x="1165" 
d="M1090 106v-106h-819v106h819zM308 1456v-1456h-123v1456h123zM988 803v-105h-717v105h717zM1085 1456v-106h-814v106h814zM933 1771v-98h-619v98h619z" />
    <glyph glyph-name="emacron" unicode="&#x113;" horiz-adv-x="1059" 
d="M576 -20q-106 0 -195 39t-154 110t-101 168.5t-36 213.5v43q0 125 37.5 226t102 173.5t148 110.5t176.5 38q103 0 182.5 -36.5t134.5 -103t83 -157t28 -199.5v-73h-819v103h699v13q-2 91 -36.5 170.5t-102 129.5t-169.5 50q-77 0 -140 -32t-108.5 -91.5t-70.5 -141
t-25 -180.5v-43q0 -89 27 -167t76 -136.5t117 -92t151 -33.5q95 0 169.5 35.5t133.5 112.5l75 -58q-36 -52 -88 -95.5t-125 -70t-170 -26.5zM880 1450v-98h-619v98h619z" />
    <glyph glyph-name="Ebreve" unicode="&#x114;" horiz-adv-x="1165" 
d="M1090 106v-106h-819v106h819zM308 1456v-1456h-123v1456h123zM988 803v-105h-717v105h717zM1085 1456v-106h-814v106h814zM805 1814h102q0 -76 -34.5 -134t-99 -91t-154.5 -33q-134 0 -211.5 72t-77.5 186h102q0 -69 42 -120t145 -51q100 0 143 51.5t43 119.5z" />
    <glyph glyph-name="ebreve" unicode="&#x115;" horiz-adv-x="1059" 
d="M576 -20q-106 0 -195 39t-154 110t-101 168.5t-36 213.5v43q0 125 37.5 226t102 173.5t148 110.5t176.5 38q103 0 182.5 -36.5t134.5 -103t83 -157t28 -199.5v-73h-819v103h699v13q-2 91 -36.5 170.5t-102 129.5t-169.5 50q-77 0 -140 -32t-108.5 -91.5t-70.5 -141
t-25 -180.5v-43q0 -89 27 -167t76 -136.5t117 -92t151 -33.5q95 0 169.5 35.5t133.5 112.5l75 -58q-36 -52 -88 -95.5t-125 -70t-170 -26.5zM752 1493h102q0 -76 -34.5 -134t-99 -91t-154.5 -33q-134 0 -211.5 72t-77.5 186h102q0 -69 42 -120t145 -51q100 0 143 51.5
t43 119.5z" />
    <glyph glyph-name="Edotaccent" unicode="&#x116;" horiz-adv-x="1165" 
d="M1090 106v-106h-819v106h819zM308 1456v-1456h-123v1456h123zM988 803v-105h-717v105h717zM1085 1456v-106h-814v106h814zM537 1704q0 33 22 57t60 24t60.5 -24t22.5 -57q0 -34 -22.5 -57t-60.5 -23t-60 23t-22 57z" />
    <glyph glyph-name="edotaccent" unicode="&#x117;" horiz-adv-x="1059" 
d="M576 -20q-106 0 -195 39t-154 110t-101 168.5t-36 213.5v43q0 125 37.5 226t102 173.5t148 110.5t176.5 38q103 0 182.5 -36.5t134.5 -103t83 -157t28 -199.5v-73h-819v103h699v13q-2 91 -36.5 170.5t-102 129.5t-169.5 50q-77 0 -140 -32t-108.5 -91.5t-70.5 -141
t-25 -180.5v-43q0 -89 27 -167t76 -136.5t117 -92t151 -33.5q95 0 169.5 35.5t133.5 112.5l75 -58q-36 -52 -88 -95.5t-125 -70t-170 -26.5zM484 1382q0 33 22 57t60 24t60.5 -24t22.5 -57q0 -34 -22.5 -57t-60.5 -23t-60 23t-22 57z" />
    <glyph glyph-name="Eogonek" unicode="&#x118;" horiz-adv-x="1165" 
d="M1090 106v-106h-819v106h819zM308 1456v-1456h-123v1456h123zM988 803v-105h-717v105h717zM1085 1456v-106h-814v106h814zM966 39l59 -39q-45 -34 -86.5 -70.5t-67.5 -77t-26 -86.5q0 -35 18.5 -59.5t67.5 -24.5q36 0 62 11t43 22l15 -85q-22 -15 -56.5 -29.5
t-87.5 -14.5q-74 0 -121.5 42.5t-47.5 127.5q0 50 28 100.5t79.5 97t120.5 85.5z" />
    <glyph glyph-name="eogonek" unicode="&#x119;" horiz-adv-x="1059" 
d="M576 -20q-106 0 -195 39t-154 110t-101 168.5t-36 213.5v43q0 125 37.5 226t102 173.5t148 110.5t176.5 38q103 0 182.5 -36.5t134.5 -103t83 -157t28 -199.5v-73h-819v103h699v13q-2 91 -36.5 170.5t-102 129.5t-169.5 50q-77 0 -140 -32t-108.5 -91.5t-70.5 -141
t-25 -180.5v-43q0 -89 27 -167t76 -136.5t117 -92t151 -33.5q95 0 169.5 35.5t133.5 112.5l75 -58q-36 -52 -88 -95.5t-125 -70t-170 -26.5zM764 81l58 -39q-45 -34 -86 -70.5t-67 -77t-26 -86.5q0 -35 18 -59.5t67 -24.5q37 0 63 11t42 22l15 -85q-22 -15 -56.5 -29.5
t-86.5 -14.5q-74 0 -122 42.5t-48 127.5q0 50 28 100.5t79.5 97t121.5 85.5z" />
    <glyph glyph-name="Ecaron" unicode="&#x11a;" horiz-adv-x="1165" 
d="M1090 106v-106h-819v106h819zM308 1456v-1456h-123v1456h123zM988 803v-105h-717v105h717zM1085 1456v-106h-814v106h814zM447 1844l172 -194l172 194h107v-12l-236 -262h-87l-235 263v11h107z" />
    <glyph glyph-name="ecaron" unicode="&#x11b;" horiz-adv-x="1059" 
d="M576 -20q-106 0 -195 39t-154 110t-101 168.5t-36 213.5v43q0 125 37.5 226t102 173.5t148 110.5t176.5 38q103 0 182.5 -36.5t134.5 -103t83 -157t28 -199.5v-73h-819v103h699v13q-2 91 -36.5 170.5t-102 129.5t-169.5 50q-77 0 -140 -32t-108.5 -91.5t-70.5 -141
t-25 -180.5v-43q0 -89 27 -167t76 -136.5t117 -92t151 -33.5q95 0 169.5 35.5t133.5 112.5l75 -58q-36 -52 -88 -95.5t-125 -70t-170 -26.5zM394 1523l172 -194l172 194h107v-12l-236 -262h-87l-235 263v11h107z" />
    <glyph glyph-name="Gcircumflex" unicode="&#x11c;" horiz-adv-x="1401" 
d="M1236 693v-519q-25 -36 -86.5 -81.5t-164.5 -79t-255 -33.5q-129 0 -236 46.5t-185.5 134t-121 210.5t-42.5 275v176q0 150 39 270.5t113 206.5t178.5 131.5t234.5 45.5q163 0 273.5 -56t173 -153.5t78.5 -220.5h-124q-14 87 -58 160.5t-127.5 118.5t-215.5 45
q-106 0 -188 -39t-138.5 -111t-85.5 -172.5t-29 -223.5v-178q0 -127 32.5 -230t93.5 -177t146 -113.5t189 -39.5q111 0 189 21t125.5 50.5t68.5 54.5v375h-391v106h514zM726 1869l241 -258v-10h-111l-169 182l-167 -182h-108v12l238 256h76z" />
    <glyph glyph-name="gcircumflex" unicode="&#x11d;" horiz-adv-x="1137" 
d="M869 1082h111v-1063q0 -140 -53.5 -241.5t-151 -155t-228.5 -53.5q-68 0 -138.5 20t-133 61.5t-106.5 103.5l68 73q65 -81 140 -118.5t162 -37.5q103 0 174.5 41t109 118t37.5 185v829zM109 530v21q0 126 28.5 227.5t82.5 174t131.5 111t175.5 38.5q95 0 168 -31
t125.5 -89t85 -138t47.5 -178v-267q-12 -91 -44 -168t-85 -133t-127.5 -87t-171.5 -31t-174 40.5t-131 114t-82.5 174t-28.5 221.5zM229 551v-21q0 -94 19 -175t58 -141.5t99 -94t142 -33.5q103 0 172.5 39.5t110.5 105t60 143.5v310q-11 53 -33.5 108t-62 101.5t-99.5 75
t-146 28.5q-83 0 -143.5 -34t-99.5 -94.5t-58 -141.5t-19 -176zM600 1526l241 -258v-10h-111l-169 182l-167 -182h-108v12l238 256h76z" />
    <glyph glyph-name="Gbreve" unicode="&#x11e;" horiz-adv-x="1401" 
d="M1236 693v-519q-25 -36 -86.5 -81.5t-164.5 -79t-255 -33.5q-129 0 -236 46.5t-185.5 134t-121 210.5t-42.5 275v176q0 150 39 270.5t113 206.5t178.5 131.5t234.5 45.5q163 0 273.5 -56t173 -153.5t78.5 -220.5h-124q-14 87 -58 160.5t-127.5 118.5t-215.5 45
q-106 0 -188 -39t-138.5 -111t-85.5 -172.5t-29 -223.5v-178q0 -127 32.5 -230t93.5 -177t146 -113.5t189 -39.5q111 0 189 21t125.5 50.5t68.5 54.5v375h-391v106h514zM874 1835h102q0 -76 -34.5 -134t-99 -91t-154.5 -33q-134 0 -211.5 72t-77.5 186h102q0 -69 42 -120
t145 -51q100 0 143 51.5t43 119.5z" />
    <glyph glyph-name="gbreve" unicode="&#x11f;" horiz-adv-x="1137" 
d="M869 1082h111v-1063q0 -140 -53.5 -241.5t-151 -155t-228.5 -53.5q-68 0 -138.5 20t-133 61.5t-106.5 103.5l68 73q65 -81 140 -118.5t162 -37.5q103 0 174.5 41t109 118t37.5 185v829zM109 530v21q0 126 28.5 227.5t82.5 174t131.5 111t175.5 38.5q95 0 168 -31
t125.5 -89t85 -138t47.5 -178v-267q-12 -91 -44 -168t-85 -133t-127.5 -87t-171.5 -31t-174 40.5t-131 114t-82.5 174t-28.5 221.5zM229 551v-21q0 -94 19 -175t58 -141.5t99 -94t142 -33.5q103 0 172.5 39.5t110.5 105t60 143.5v310q-11 53 -33.5 108t-62 101.5t-99.5 75
t-146 28.5q-83 0 -143.5 -34t-99.5 -94.5t-58 -141.5t-19 -176zM748 1492h102q0 -76 -34.5 -134t-99 -91t-154.5 -33q-134 0 -211.5 72t-77.5 186h102q0 -69 42 -120t145 -51q100 0 143 51.5t43 119.5z" />
    <glyph glyph-name="Gdotaccent" unicode="&#x120;" horiz-adv-x="1401" 
d="M1236 693v-519q-25 -36 -86.5 -81.5t-164.5 -79t-255 -33.5q-129 0 -236 46.5t-185.5 134t-121 210.5t-42.5 275v176q0 150 39 270.5t113 206.5t178.5 131.5t234.5 45.5q163 0 273.5 -56t173 -153.5t78.5 -220.5h-124q-14 87 -58 160.5t-127.5 118.5t-215.5 45
q-106 0 -188 -39t-138.5 -111t-85.5 -172.5t-29 -223.5v-178q0 -127 32.5 -230t93.5 -177t146 -113.5t189 -39.5q111 0 189 21t125.5 50.5t68.5 54.5v375h-391v106h514zM606 1725q0 33 22 57t60 24t60.5 -24t22.5 -57q0 -34 -22.5 -57t-60.5 -23t-60 23t-22 57z" />
    <glyph glyph-name="gdotaccent" unicode="&#x121;" horiz-adv-x="1137" 
d="M869 1082h111v-1063q0 -140 -53.5 -241.5t-151 -155t-228.5 -53.5q-68 0 -138.5 20t-133 61.5t-106.5 103.5l68 73q65 -81 140 -118.5t162 -37.5q103 0 174.5 41t109 118t37.5 185v829zM109 530v21q0 126 28.5 227.5t82.5 174t131.5 111t175.5 38.5q95 0 168 -31
t125.5 -89t85 -138t47.5 -178v-267q-12 -91 -44 -168t-85 -133t-127.5 -87t-171.5 -31t-174 40.5t-131 114t-82.5 174t-28.5 221.5zM229 551v-21q0 -94 19 -175t58 -141.5t99 -94t142 -33.5q103 0 172.5 39.5t110.5 105t60 143.5v310q-11 53 -33.5 108t-62 101.5t-99.5 75
t-146 28.5q-83 0 -143.5 -34t-99.5 -94.5t-58 -141.5t-19 -176zM480 1382q0 33 22 57t60 24t60.5 -24t22.5 -57q0 -34 -22.5 -57t-60.5 -23t-60 23t-22 57z" />
    <glyph glyph-name="uni0122" unicode="&#x122;" horiz-adv-x="1401" 
d="M1236 693v-519q-25 -36 -86.5 -81.5t-164.5 -79t-255 -33.5q-129 0 -236 46.5t-185.5 134t-121 210.5t-42.5 275v176q0 150 39 270.5t113 206.5t178.5 131.5t234.5 45.5q163 0 273.5 -56t173 -153.5t78.5 -220.5h-124q-14 87 -58 160.5t-127.5 118.5t-215.5 45
q-106 0 -188 -39t-138.5 -111t-85.5 -172.5t-29 -223.5v-178q0 -127 32.5 -230t93.5 -177t146 -113.5t189 -39.5q111 0 189 21t125.5 50.5t68.5 54.5v375h-391v106h514zM788 -111v-78q0 -79 -30 -154.5t-86 -127.5l-71 52q36 54 54 107t18 121v80h115z" />
    <glyph glyph-name="uni0123" unicode="&#x123;" horiz-adv-x="1137" 
d="M869 1082h111v-1063q0 -140 -53.5 -241.5t-151 -155t-228.5 -53.5q-68 0 -138.5 20t-133 61.5t-106.5 103.5l68 73q65 -81 140 -118.5t162 -37.5q103 0 174.5 41t109 118t37.5 185v829zM109 530v21q0 126 28.5 227.5t82.5 174t131.5 111t175.5 38.5q95 0 168 -31
t125.5 -89t85 -138t47.5 -178v-267q-12 -91 -44 -168t-85 -133t-127.5 -87t-171.5 -31t-174 40.5t-131 114t-82.5 174t-28.5 221.5zM229 551v-21q0 -94 19 -175t58 -141.5t99 -94t142 -33.5q103 0 172.5 39.5t110.5 105t60 143.5v310q-11 53 -33.5 108t-62 101.5t-99.5 75
t-146 28.5q-83 0 -143.5 -34t-99.5 -94.5t-58 -141.5t-19 -176zM499 1265v128q0 50 15.5 95.5t38.5 83.5t46 65l75 -49q-28 -53 -41.5 -98.5t-13.5 -98.5v-126h-120z" />
    <glyph glyph-name="Hcircumflex" unicode="&#x124;" horiz-adv-x="1450" 
d="M1164 803v-105h-884v105h884zM308 1456v-1456h-123v1456h123zM1263 1456v-1456h-123v1456h123zM753 1848l241 -258v-10h-111l-169 182l-167 -182h-108v12l238 256h76z" />
    <glyph glyph-name="hcircumflex" unicode="&#x125;" horiz-adv-x="1125" 
d="M276 1536v-1536h-119v1536h119zM250 608l-53 30q5 96 38 180t89.5 148t133.5 100t170 36q81 0 145 -22t108.5 -69.5t68 -123t23.5 -182.5v-705h-120v706q0 111 -31 174.5t-88 90.5t-135 27q-86 0 -150.5 -37.5t-108 -97t-66.5 -127t-24 -128.5zM526 1847l241 -258v-10
h-111l-169 182l-167 -182h-108v12l238 256h76z" />
    <glyph glyph-name="Hbar" unicode="&#x126;" horiz-adv-x="1412" 
d="M1385 1124v-98h-1360v98h1360zM1140 803v-105h-884v105h884zM285 1456v-1456h-123v1456h123zM1240 1456v-1456h-123v1456h123z" />
    <glyph glyph-name="hbar" unicode="&#x127;" horiz-adv-x="1155" 
d="M306 1536v-1536h-119v1536h119zM280 608l-53 30q5 96 38 180t89.5 148t133.5 100t170 36q81 0 145 -22t108.5 -69.5t68 -123t23.5 -182.5v-705h-120v706q0 111 -31 174.5t-88 90.5t-135 27q-86 0 -150.5 -37.5t-108 -97t-66.5 -127t-24 -128.5zM643 1360v-103h-612v103
h612z" />
    <glyph glyph-name="Itilde" unicode="&#x128;" horiz-adv-x="546" 
d="M335 1456v-1456h-123v1456h123zM525 1822l90 -5q0 -64 -26 -112.5t-70.5 -75.5t-99.5 -27q-52 0 -86.5 17t-61.5 38.5t-56.5 38t-72.5 16.5q-46 0 -78 -31.5t-32 -86.5l-90 3q0 64 26 112t70.5 74.5t98.5 26.5q48 0 82 -16.5t63.5 -38t60.5 -38t72 -16.5q46 0 78 33
t32 88z" />
    <glyph glyph-name="itilde" unicode="&#x129;" horiz-adv-x="457" 
d="M288 1082v-1082h-119v1082h119zM482 1489l90 -5q0 -64 -26 -112.5t-70.5 -75.5t-99.5 -27q-52 0 -86.5 17t-61.5 38.5t-56.5 38t-72.5 16.5q-46 0 -78 -31.5t-32 -86.5l-90 3q0 64 26 112t70.5 74.5t98.5 26.5q48 0 82 -16.5t63.5 -38t60.5 -38t72 -16.5q46 0 78 33
t32 88z" />
    <glyph glyph-name="Imacron" unicode="&#x12a;" horiz-adv-x="546" 
d="M335 1456v-1456h-123v1456h123zM588 1771v-98h-619v98h619z" />
    <glyph glyph-name="imacron" unicode="&#x12b;" horiz-adv-x="457" 
d="M288 1082v-1082h-119v1082h119zM545 1438v-98h-619v98h619z" />
    <glyph glyph-name="Ibreve" unicode="&#x12c;" horiz-adv-x="546" 
d="M335 1456v-1456h-123v1456h123zM460 1814h102q0 -76 -34.5 -134t-99 -91t-154.5 -33q-134 0 -211.5 72t-77.5 186h102q0 -69 42 -120t145 -51q100 0 143 51.5t43 119.5z" />
    <glyph glyph-name="ibreve" unicode="&#x12d;" horiz-adv-x="457" 
d="M288 1082v-1082h-119v1082h119zM417 1481h102q0 -76 -34.5 -134t-99 -91t-154.5 -33q-134 0 -211.5 72t-77.5 186h102q0 -69 42 -120t145 -51q100 0 143 51.5t43 119.5z" />
    <glyph glyph-name="Iogonek" unicode="&#x12e;" horiz-adv-x="546" 
d="M335 1456v-1456h-123v1456h123zM267 44l59 -39q-45 -34 -86.5 -70.5t-67.5 -77t-26 -86.5q0 -35 18.5 -59.5t67.5 -24.5q36 0 62 11t43 22l15 -85q-22 -15 -56.5 -29.5t-87.5 -14.5q-74 0 -121.5 42.5t-47.5 127.5q0 50 28 100.5t79.5 97t120.5 85.5z" />
    <glyph glyph-name="iogonek" unicode="&#x12f;" horiz-adv-x="460" 
d="M291 1082v-1082h-120v1082h120zM150 1395q0 34 21.5 57.5t60.5 23.5q38 0 60.5 -23.5t22.5 -57.5q0 -33 -22.5 -56.5t-60.5 -23.5q-39 0 -60.5 23.5t-21.5 56.5zM224 39l59 -39q-45 -34 -86.5 -70.5t-67.5 -77t-26 -86.5q0 -35 18.5 -59.5t67.5 -24.5q36 0 62 11t43 22
l15 -85q-22 -15 -56.5 -29.5t-87.5 -14.5q-74 0 -121.5 42.5t-47.5 127.5q0 50 28 100.5t79.5 97t120.5 85.5z" />
    <glyph glyph-name="Idotaccent" unicode="&#x130;" horiz-adv-x="546" 
d="M335 1456v-1456h-123v1456h123zM192 1704q0 33 22 57t60 24t60.5 -24t22.5 -57q0 -34 -22.5 -57t-60.5 -23t-60 23t-22 57z" />
    <glyph glyph-name="dotlessi" unicode="&#x131;" horiz-adv-x="457" 
d="M288 1082v-1082h-119v1082h119z" />
    <glyph glyph-name="IJ" unicode="&#x132;" horiz-adv-x="1673" 
d="M335 1456v-1456h-123v1456h123zM1374 434v1022h123v-1022q0 -147 -57 -248t-156.5 -153.5t-225.5 -52.5q-131 0 -230.5 46t-154.5 140t-55 236h123q0 -105 37.5 -175.5t108.5 -105.5t171 -35q88 0 159.5 39t114 117t42.5 192z" />
    <glyph glyph-name="ij" unicode="&#x133;" horiz-adv-x="928" 
d="M291 1082v-1082h-120v1082h120zM150 1395q0 34 21.5 57.5t60.5 23.5q38 0 60.5 -23.5t22.5 -57.5q0 -33 -22.5 -56.5t-60.5 -23.5q-39 0 -60.5 23.5t-21.5 56.5zM626 1082h120v-1211q0 -99 -32.5 -168t-95.5 -104.5t-156 -35.5q-25 0 -54 5t-52 14l2 100q17 -5 42 -9
t48 -4q57 0 97 22.5t60.5 67.5t20.5 112v1211zM605 1395q0 34 22 57.5t60 23.5q39 0 61 -23.5t22 -57.5q0 -33 -22 -56.5t-61 -23.5q-38 0 -60 23.5t-22 56.5z" />
    <glyph glyph-name="Jcircumflex" unicode="&#x134;" horiz-adv-x="1128" 
d="M828 434v1022h123v-1022q0 -147 -57 -248t-156.5 -153.5t-225.5 -52.5q-131 0 -230.5 46t-154.5 140t-55 236h123q0 -105 37.5 -175.5t108.5 -105.5t171 -35q88 0 159.5 39t114 117t42.5 192zM916 1826l241 -258v-10h-111l-169 182l-167 -182h-108v12l238 256h76z" />
    <glyph glyph-name="jcircumflex" unicode="&#x135;" horiz-adv-x="469" 
d="M180 1082h119v-1171q0 -112 -36 -190t-104 -118t-163 -40q-31 0 -57 4.5t-55 14.5l13 100q16 -6 47 -11t52 -5q58 0 99 29t63 84t22 132v1171zM276 1485l241 -258v-10h-111l-169 182l-167 -182h-108v12l238 256h76z" />
    <glyph glyph-name="uni0136" unicode="&#x136;" horiz-adv-x="1293" 
d="M308 1456v-1456h-123v1456h123zM1209 1456l-628 -667l-317 -311l-12 138l254 264l548 576h155zM1106 0l-613 748l74 100l689 -848h-150zM700 -6v-78q0 -79 -30 -154.5t-86 -127.5l-71 52q36 54 54 107t18 121v80h115z" />
    <glyph glyph-name="uni0137" unicode="&#x137;" horiz-adv-x="1004" 
d="M277 1536v-1536h-120v1536h120zM955 1082l-505 -502l-216 -208l-17 118l173 187l414 405h151zM851 0l-451 562l65 104l530 -666h-144zM582 -14v-78q0 -79 -30 -154.5t-86 -127.5l-71 52q36 54 54 107t18 121v80h115z" />
    <glyph glyph-name="kgreenlandic" unicode="&#x138;" horiz-adv-x="1112" 
d="M283 1082v-1082h-120v1082h120zM1007 1082l-533 -586h-233l-12 107h189l443 479h146zM904 0l-497 512l75 92l575 -604h-153z" />
    <glyph glyph-name="Lacute" unicode="&#x139;" horiz-adv-x="1080" 
d="M1027 106v-106h-755v106h755zM309 1456v-1456h-124v1456h124zM178 1537l191 280h145l-232 -280h-104z" />
    <glyph glyph-name="lacute" unicode="&#x13a;" horiz-adv-x="460" 
d="M291 1536v-1536h-120v1536h120zM161 1650l191 280h145l-232 -280h-104z" />
    <glyph glyph-name="uni013B" unicode="&#x13b;" horiz-adv-x="1080" 
d="M1027 106v-106h-755v106h755zM309 1456v-1456h-124v1456h124zM681 -96v-78q0 -79 -30 -154.5t-86 -127.5l-71 52q36 54 54 107t18 121v80h115z" />
    <glyph glyph-name="uni013C" unicode="&#x13c;" horiz-adv-x="460" 
d="M291 1536v-1536h-120v1536h120zM290 -96v-78q0 -79 -30 -154.5t-86 -127.5l-71 52q36 54 54 107t18 121v80h115z" />
    <glyph glyph-name="Lcaron" unicode="&#x13d;" horiz-adv-x="1080" 
d="M1027 106v-106h-755v106h755zM309 1456v-1456h-124v1456h124zM739 1457v-78q0 -79 -30 -154.5t-86 -127.5l-71 52q36 54 54 107t18 121v80h115z" />
    <glyph glyph-name="lcaron" unicode="&#x13e;" horiz-adv-x="610" 
d="M291 1536v-1536h-120v1536h120zM599 1538v-78q0 -79 -30 -154.5t-86 -127.5l-71 52q36 54 54 107t18 121v80h115z" />
    <glyph glyph-name="Ldot" unicode="&#x13f;" horiz-adv-x="1080" 
d="M1027 106v-106h-755v106h755zM309 1456v-1456h-124v1456h124zM597 777q0 33 22 57t60 24t60.5 -24t22.5 -57q0 -34 -22.5 -57t-60.5 -23t-60 23t-22 57z" />
    <glyph glyph-name="ldot" unicode="&#x140;" horiz-adv-x="680" 
d="M291 1536v-1536h-120v1536h120zM429 789q0 33 22 57t60 24t60.5 -24t22.5 -57q0 -34 -22.5 -57t-60.5 -23t-60 23t-22 57z" />
    <glyph glyph-name="Lslash" unicode="&#x141;" horiz-adv-x="1082" 
d="M611 915v-91l-589 -187v91zM1023 106v-106h-755v106h755zM304 1456v-1456h-123v1456h123z" />
    <glyph glyph-name="lslash" unicode="&#x142;" horiz-adv-x="530" 
d="M505 930v-90l-479 -187v90zM325 1536v-1536h-119v1536h119z" />
    <glyph glyph-name="Nacute" unicode="&#x143;" horiz-adv-x="1455" 
d="M1269 1456v-1456h-124l-836 1244v-1244h-124v1456h124l838 -1243v1243h122zM656 1571l191 280h145l-232 -280h-104z" />
    <glyph glyph-name="nacute" unicode="&#x144;" horiz-adv-x="1126" 
d="M276 851v-851h-119v1082h114zM250 608l-53 30q5 96 38 180t89.5 148t133.5 100t170 36q81 0 145 -22t108.5 -69.5t68 -123t23.5 -182.5v-705h-120v706q0 111 -31 174.5t-88 90.5t-135 27q-86 0 -150.5 -37.5t-108 -97t-66.5 -127t-24 -128.5zM505 1255l191 280h145
l-232 -280h-104z" />
    <glyph glyph-name="uni0145" unicode="&#x145;" horiz-adv-x="1455" 
d="M1269 1456v-1456h-124l-836 1244v-1244h-124v1456h124l838 -1243v1243h122zM781 -96v-78q0 -79 -30 -154.5t-86 -127.5l-71 52q36 54 54 107t18 121v80h115z" />
    <glyph glyph-name="uni0146" unicode="&#x146;" horiz-adv-x="1126" 
d="M276 851v-851h-119v1082h114zM250 608l-53 30q5 96 38 180t89.5 148t133.5 100t170 36q81 0 145 -22t108.5 -69.5t68 -123t23.5 -182.5v-705h-120v706q0 111 -31 174.5t-88 90.5t-135 27q-86 0 -150.5 -37.5t-108 -97t-66.5 -127t-24 -128.5zM629 -96v-78
q0 -79 -30 -154.5t-86 -127.5l-71 52q36 54 54 107t18 121v80h115z" />
    <glyph glyph-name="Ncaron" unicode="&#x147;" horiz-adv-x="1455" 
d="M1269 1456v-1456h-124l-836 1244v-1244h-124v1456h124l838 -1243v1243h122zM554 1839l172 -194l172 194h107v-12l-236 -262h-87l-235 263v11h107z" />
    <glyph glyph-name="ncaron" unicode="&#x148;" horiz-adv-x="1126" 
d="M276 851v-851h-119v1082h114zM250 608l-53 30q5 96 38 180t89.5 148t133.5 100t170 36q81 0 145 -22t108.5 -69.5t68 -123t23.5 -182.5v-705h-120v706q0 111 -31 174.5t-88 90.5t-135 27q-86 0 -150.5 -37.5t-108 -97t-66.5 -127t-24 -128.5zM403 1522l172 -194l172 194
h107v-12l-236 -262h-87l-235 263v11h107z" />
    <glyph glyph-name="napostrophe" unicode="&#x149;" horiz-adv-x="1126" 
d="M276 851v-851h-119v1082h114zM250 608l-53 30q5 96 38 180t89.5 148t133.5 100t170 36q81 0 145 -22t108.5 -69.5t68 -123t23.5 -182.5v-705h-120v706q0 111 -31 174.5t-88 90.5t-135 27q-86 0 -150.5 -37.5t-108 -97t-66.5 -127t-24 -128.5zM139 1539v-78
q0 -79 -30 -154.5t-86 -127.5l-71 52q36 54 54 107t18 121v80h115z" />
    <glyph glyph-name="Eng" unicode="&#x14a;" horiz-adv-x="1435" 
d="M181 1456h124v-1456h-124v1456zM217 1382l88 74l917 -1382l-88 -74zM1134 1456h124v-1542q0 -113 -37 -191.5t-105.5 -119t-163.5 -40.5q-31 0 -57.5 4.5t-56.5 14.5l14 103q16 -6 46.5 -11t51.5 -5q59 0 100 29t62.5 83.5t21.5 132.5v1542z" />
    <glyph glyph-name="eng" unicode="&#x14b;" horiz-adv-x="1141" 
d="M278 851v-851h-120v1082h107zM245 565l-44 -1q0 118 27 216.5t80 170.5t131.5 111.5t182.5 39.5q85 0 152 -25t113.5 -78.5t70.5 -137.5t24 -201v-749q0 -112 -36.5 -190t-104.5 -118t-163 -40q-34 0 -63 4.5t-61 14.5l14 104q17 -6 51.5 -10.5t58.5 -4.5q59 0 100 27.5
t62.5 81.5t21.5 131v748q0 98 -19 163.5t-55 103.5t-84.5 54.5t-108.5 16.5q-99 0 -166 -36.5t-107.5 -98t-58.5 -138.5t-18 -159z" />
    <glyph glyph-name="Omacron" unicode="&#x14c;" horiz-adv-x="1387" 
d="M1261 806v-155q0 -153 -40 -277t-114 -212t-178.5 -135t-233.5 -47q-127 0 -231.5 47t-180 135t-116.5 212t-41 277v155q0 153 40.5 276.5t115.5 211.5t179.5 135t231.5 47q129 0 233.5 -47t179.5 -135t115 -211.5t40 -276.5zM1138 651v157q0 129 -29.5 232t-87 176
t-140.5 112t-188 39q-104 0 -186 -39t-139.5 -112t-88 -176t-30.5 -232v-157q0 -130 31 -234t89 -177t140 -112t186 -39q106 0 188 39t139 112t86.5 177t29.5 234zM1006 1777v-98h-619v98h619z" />
    <glyph glyph-name="omacron" unicode="&#x14d;" horiz-adv-x="1148" 
d="M91 525v32q0 118 34.5 218t97.5 173t152 113.5t198 40.5q110 0 199.5 -40.5t153 -113.5t97.5 -173t34 -218v-32q0 -118 -34 -217.5t-97.5 -173t-152 -114t-198.5 -40.5t-199 40.5t-152.5 114t-98 173t-34.5 217.5zM211 557v-32q0 -89 23.5 -168.5t70 -141t114.5 -97
t156 -35.5t155.5 35.5t113.5 97t69.5 141t23.5 168.5v32q0 88 -23.5 167t-70 141t-114.5 98t-156 36q-87 0 -154.5 -36t-114 -98t-70 -141t-23.5 -167zM885 1449v-98h-619v98h619z" />
    <glyph glyph-name="Obreve" unicode="&#x14e;" horiz-adv-x="1387" 
d="M1261 806v-155q0 -153 -40 -277t-114 -212t-178.5 -135t-233.5 -47q-127 0 -231.5 47t-180 135t-116.5 212t-41 277v155q0 153 40.5 276.5t115.5 211.5t179.5 135t231.5 47q129 0 233.5 -47t179.5 -135t115 -211.5t40 -276.5zM1138 651v157q0 129 -29.5 232t-87 176
t-140.5 112t-188 39q-104 0 -186 -39t-139.5 -112t-88 -176t-30.5 -232v-157q0 -130 31 -234t89 -177t140 -112t186 -39q106 0 188 39t139 112t86.5 177t29.5 234zM878 1820h102q0 -76 -34.5 -134t-99 -91t-154.5 -33q-134 0 -211.5 72t-77.5 186h102q0 -69 42 -120t145 -51
q100 0 143 51.5t43 119.5z" />
    <glyph glyph-name="obreve" unicode="&#x14f;" horiz-adv-x="1148" 
d="M91 525v32q0 118 34.5 218t97.5 173t152 113.5t198 40.5q110 0 199.5 -40.5t153 -113.5t97.5 -173t34 -218v-32q0 -118 -34 -217.5t-97.5 -173t-152 -114t-198.5 -40.5t-199 40.5t-152.5 114t-98 173t-34.5 217.5zM211 557v-32q0 -89 23.5 -168.5t70 -141t114.5 -97
t156 -35.5t155.5 35.5t113.5 97t69.5 141t23.5 168.5v32q0 88 -23.5 167t-70 141t-114.5 98t-156 36q-87 0 -154.5 -36t-114 -98t-70 -141t-23.5 -167zM757 1492h102q0 -76 -34.5 -134t-99 -91t-154.5 -33q-134 0 -211.5 72t-77.5 186h102q0 -69 42 -120t145 -51
q100 0 143 51.5t43 119.5z" />
    <glyph glyph-name="Ohungarumlaut" unicode="&#x150;" horiz-adv-x="1387" 
d="M1261 806v-155q0 -153 -40 -277t-114 -212t-178.5 -135t-233.5 -47q-127 0 -231.5 47t-180 135t-116.5 212t-41 277v155q0 153 40.5 276.5t115.5 211.5t179.5 135t231.5 47q129 0 233.5 -47t179.5 -135t115 -211.5t40 -276.5zM1138 651v157q0 129 -29.5 232t-87 176
t-140.5 112t-188 39q-104 0 -186 -39t-139.5 -112t-88 -176t-30.5 -232v-157q0 -130 31 -234t89 -177t140 -112t186 -39q106 0 188 39t139 112t86.5 177t29.5 234zM733 1559l256 304h143l-278 -304h-121zM476 1559l203 304h137l-231 -304h-109z" />
    <glyph glyph-name="ohungarumlaut" unicode="&#x151;" horiz-adv-x="1148" 
d="M91 525v32q0 118 34.5 218t97.5 173t152 113.5t198 40.5q110 0 199.5 -40.5t153 -113.5t97.5 -173t34 -218v-32q0 -118 -34 -217.5t-97.5 -173t-152 -114t-198.5 -40.5t-199 40.5t-152.5 114t-98 173t-34.5 217.5zM211 557v-32q0 -89 23.5 -168.5t70 -141t114.5 -97
t156 -35.5t155.5 35.5t113.5 97t69.5 141t23.5 168.5v32q0 88 -23.5 167t-70 141t-114.5 98t-156 36q-87 0 -154.5 -36t-114 -98t-70 -141t-23.5 -167zM612 1231l256 304h143l-278 -304h-121zM355 1231l203 304h137l-231 -304h-109z" />
    <glyph glyph-name="OE" unicode="&#x152;" horiz-adv-x="1913" 
d="M645 1477q82 0 161.5 -6.5t151.5 -14.5v-105q-70 12 -149.5 17.5t-163.5 5.5q-96 0 -172.5 -33.5t-131.5 -97.5t-84 -155t-29 -206v-306q0 -113 29.5 -204.5t84.5 -156t132 -99t173 -34.5q81 0 162.5 6t148.5 18v-106q-72 -7 -150.5 -14t-160.5 -7q-120 0 -218.5 43.5
t-170.5 123t-110.5 189t-38.5 241.5v304q0 132 38.5 241.5t109.5 189t169.5 123t218.5 43.5zM1801 106v-106h-819v106h819zM1019 1456v-1456h-123v1456h123zM1699 803v-105h-717v105h717zM1796 1456v-106h-814v106h814z" />
    <glyph glyph-name="oe" unicode="&#x153;" horiz-adv-x="1892" 
d="M1412 -20q-101 0 -187 39t-150 110.5t-99.5 168.5t-35.5 212v54q0 119 36 217.5t99.5 170.5t146 111.5t174.5 38.5q101 0 180.5 -32.5t134.5 -93.5t84 -146t29 -190v-102h-812v102h692v30q0 91 -36 165.5t-104.5 119t-167.5 44.5q-75 0 -137 -33.5t-106.5 -93.5
t-68.5 -138.5t-24 -169.5v-54q0 -89 24.5 -166.5t71 -136t111.5 -91.5t145 -33q118 0 195.5 32.5t129.5 86.5l51 -84q-55 -58 -147 -98t-229 -40zM95 525v32q0 118 33.5 218t96 173t150.5 113.5t197 40.5q111 0 199.5 -40.5t151 -113.5t96 -173t33.5 -218v-32
q0 -118 -33.5 -218t-96 -173t-150.5 -113.5t-198 -40.5t-198 40.5t-151 113.5t-96.5 173t-33.5 218zM215 557v-32q0 -89 23 -168.5t68.5 -141.5t112.5 -97t155 -35t155 35t112 97t68 141.5t23 168.5v32q0 88 -23 167t-68.5 141t-113 98t-155.5 36q-87 0 -154 -36t-112.5 -98
t-68 -141t-22.5 -167z" />
    <glyph glyph-name="Racute" unicode="&#x154;" horiz-adv-x="1301" 
d="M182 1456h473q152 0 262.5 -49t171 -144.5t60.5 -234.5q0 -103 -43 -187t-119.5 -140.5t-176.5 -77.5l-42 -16h-505l-2 105h422q114 0 190 44.5t114.5 116.5t38.5 155q0 99 -42.5 171.5t-125.5 111.5t-203 39h-349v-1350h-124v1456zM1081 0l-377 651l132 2l376 -640v-13
h-131zM538 1571l191 280h145l-232 -280h-104z" />
    <glyph glyph-name="racute" unicode="&#x155;" horiz-adv-x="690" 
d="M276 903v-903h-119v1082h117zM660 1090l-4 -110q-19 3 -38 5t-42 2q-77 0 -136 -28.5t-98.5 -79t-60.5 -117.5t-24 -145l-44 -16q0 106 22 197t67 159.5t114.5 106.5t164.5 38q22 0 44.5 -3.5t34.5 -8.5zM340 1255l191 280h145l-232 -280h-104z" />
    <glyph glyph-name="uni0156" unicode="&#x156;" horiz-adv-x="1301" 
d="M182 1456h473q152 0 262.5 -49t171 -144.5t60.5 -234.5q0 -103 -43 -187t-119.5 -140.5t-176.5 -77.5l-42 -16h-505l-2 105h422q114 0 190 44.5t114.5 116.5t38.5 155q0 99 -42.5 171.5t-125.5 111.5t-203 39h-349v-1350h-124v1456zM1081 0l-377 651l132 2l376 -640v-13
h-131zM667 -96v-78q0 -79 -30 -154.5t-86 -127.5l-71 52q36 54 54 107t18 121v80h115z" />
    <glyph glyph-name="uni0157" unicode="&#x157;" horiz-adv-x="690" 
d="M276 903v-903h-119v1082h117zM660 1090l-4 -110q-19 3 -38 5t-42 2q-77 0 -136 -28.5t-98.5 -79t-60.5 -117.5t-24 -145l-44 -16q0 106 22 197t67 159.5t114.5 106.5t164.5 38q22 0 44.5 -3.5t34.5 -8.5zM281 -91v-78q0 -79 -30 -154.5t-86 -127.5l-71 52q36 54 54 107
t18 121v80h115z" />
    <glyph glyph-name="Rcaron" unicode="&#x158;" horiz-adv-x="1301" 
d="M182 1456h473q152 0 262.5 -49t171 -144.5t60.5 -234.5q0 -103 -43 -187t-119.5 -140.5t-176.5 -77.5l-42 -16h-505l-2 105h422q114 0 190 44.5t114.5 116.5t38.5 155q0 99 -42.5 171.5t-125.5 111.5t-203 39h-349v-1350h-124v1456zM1081 0l-377 651l132 2l376 -640v-13
h-131zM436 1839l172 -194l172 194h107v-12l-236 -262h-87l-235 263v11h107z" />
    <glyph glyph-name="rcaron" unicode="&#x159;" horiz-adv-x="690" 
d="M276 903v-903h-119v1082h117zM660 1090l-4 -110q-19 3 -38 5t-42 2q-77 0 -136 -28.5t-98.5 -79t-60.5 -117.5t-24 -145l-44 -16q0 106 22 197t67 159.5t114.5 106.5t164.5 38q22 0 44.5 -3.5t34.5 -8.5zM238 1522l172 -194l172 194h107v-12l-236 -262h-87l-235 263v11
h107z" />
    <glyph glyph-name="Sacute" unicode="&#x15a;" horiz-adv-x="1214" 
d="M1009 359q0 60 -20 106.5t-65.5 84t-122 70t-190.5 64.5q-109 31 -197 68t-150.5 85t-95.5 112.5t-33 150.5q0 84 36 153t101.5 119t155 77t196.5 27q153 0 265 -58t173 -156.5t61 -220.5h-123q0 95 -44.5 169.5t-128 117t-203.5 42.5t-201.5 -36.5t-122.5 -97
t-41 -134.5q0 -52 20 -95.5t65 -81t120.5 -69.5t185.5 -62q116 -31 205.5 -70t151.5 -90t94 -118t32 -155q0 -89 -37 -159.5t-104.5 -120t-159 -75.5t-200.5 -26q-97 0 -193 25t-175.5 78t-127 135.5t-47.5 198.5h123q0 -92 37 -155.5t98.5 -102t136 -56t148.5 -17.5
q115 0 199.5 34t131 95.5t46.5 143.5zM557 1583l191 280h145l-232 -280h-104z" />
    <glyph glyph-name="sacute" unicode="&#x15b;" horiz-adv-x="1038" 
d="M805 276q0 45 -22 87.5t-84.5 78.5t-182.5 61q-91 20 -161.5 45t-118.5 60t-73 84t-25 116q0 60 26.5 113.5t76 94t120 63.5t158.5 23q126 0 215 -42.5t137 -115.5t48 -165h-120q0 56 -32.5 106t-95 82t-152.5 32q-93 0 -150.5 -28t-84 -71t-26.5 -89q0 -36 11 -65.5
t42 -54.5t88 -47t147 -42q131 -30 214.5 -71.5t124 -101.5t40.5 -146q0 -67 -28 -122.5t-80.5 -96t-126 -62.5t-164.5 -22q-137 0 -232 46t-143.5 120t-48.5 159h120q5 -85 52.5 -133.5t115.5 -68.5t136 -20q91 0 153 27t94 71.5t32 94.5zM467 1255l191 280h145l-232 -280
h-104z" />
    <glyph glyph-name="Scircumflex" unicode="&#x15c;" horiz-adv-x="1214" 
d="M1009 359q0 60 -20 106.5t-65.5 84t-122 70t-190.5 64.5q-109 31 -197 68t-150.5 85t-95.5 112.5t-33 150.5q0 84 36 153t101.5 119t155 77t196.5 27q153 0 265 -58t173 -156.5t61 -220.5h-123q0 95 -44.5 169.5t-128 117t-203.5 42.5t-201.5 -36.5t-122.5 -97
t-41 -134.5q0 -52 20 -95.5t65 -81t120.5 -69.5t185.5 -62q116 -31 205.5 -70t151.5 -90t94 -118t32 -155q0 -89 -37 -159.5t-104.5 -120t-159 -75.5t-200.5 -26q-97 0 -193 25t-175.5 78t-127 135.5t-47.5 198.5h123q0 -92 37 -155.5t98.5 -102t136 -56t148.5 -17.5
q115 0 199.5 34t131 95.5t46.5 143.5zM666 1854l241 -258v-10h-111l-169 182l-167 -182h-108v12l238 256h76z" />
    <glyph glyph-name="scircumflex" unicode="&#x15d;" horiz-adv-x="1038" 
d="M805 276q0 45 -22 87.5t-84.5 78.5t-182.5 61q-91 20 -161.5 45t-118.5 60t-73 84t-25 116q0 60 26.5 113.5t76 94t120 63.5t158.5 23q126 0 215 -42.5t137 -115.5t48 -165h-120q0 56 -32.5 106t-95 82t-152.5 32q-93 0 -150.5 -28t-84 -71t-26.5 -89q0 -36 11 -65.5
t42 -54.5t88 -47t147 -42q131 -30 214.5 -71.5t124 -101.5t40.5 -146q0 -67 -28 -122.5t-80.5 -96t-126 -62.5t-164.5 -22q-137 0 -232 46t-143.5 120t-48.5 159h120q5 -85 52.5 -133.5t115.5 -68.5t136 -20q91 0 153 27t94 71.5t32 94.5zM576 1526l241 -258v-10h-111
l-169 182l-167 -182h-108v12l238 256h76z" />
    <glyph glyph-name="Scedilla" unicode="&#x15e;" horiz-adv-x="1214" 
d="M1009 359q0 60 -20 106.5t-65.5 84t-122 70t-190.5 64.5q-109 31 -197 68t-150.5 85t-95.5 112.5t-33 150.5q0 84 36 153t101.5 119t155 77t196.5 27q153 0 265 -58t173 -156.5t61 -220.5h-123q0 95 -44.5 169.5t-128 117t-203.5 42.5t-201.5 -36.5t-122.5 -97
t-41 -134.5q0 -52 20 -95.5t65 -81t120.5 -69.5t185.5 -62q116 -31 205.5 -70t151.5 -90t94 -118t32 -155q0 -89 -37 -159.5t-104.5 -120t-159 -75.5t-200.5 -26q-97 0 -193 25t-175.5 78t-127 135.5t-47.5 198.5h123q0 -92 37 -155.5t98.5 -102t136 -56t148.5 -17.5
q115 0 199.5 34t131 95.5t46.5 143.5zM587 -5h93l-11 -64q62 -9 113.5 -45.5t51.5 -125.5q0 -45 -19.5 -82t-57.5 -63t-92.5 -40.5t-124.5 -14.5l-7 78q50 0 96 12.5t75.5 39t29.5 68.5q0 39 -19 60.5t-58 32.5t-98 16z" />
    <glyph glyph-name="scedilla" unicode="&#x15f;" horiz-adv-x="1038" 
d="M805 276q0 45 -22 87.5t-84.5 78.5t-182.5 61q-91 20 -161.5 45t-118.5 60t-73 84t-25 116q0 60 26.5 113.5t76 94t120 63.5t158.5 23q126 0 215 -42.5t137 -115.5t48 -165h-120q0 56 -32.5 106t-95 82t-152.5 32q-93 0 -150.5 -28t-84 -71t-26.5 -89q0 -36 11 -65.5
t42 -54.5t88 -47t147 -42q131 -30 214.5 -71.5t124 -101.5t40.5 -146q0 -67 -28 -122.5t-80.5 -96t-126 -62.5t-164.5 -22q-137 0 -232 46t-143.5 120t-48.5 159h120q5 -85 52.5 -133.5t115.5 -68.5t136 -20q91 0 153 27t94 71.5t32 94.5zM494 -7h93l-11 -64
q62 -9 113.5 -45.5t51.5 -125.5q0 -45 -19.5 -82t-57.5 -63t-92.5 -40.5t-124.5 -14.5l-7 78q50 0 96 12.5t75.5 39t29.5 68.5q0 39 -19 60.5t-58 32.5t-98 16z" />
    <glyph glyph-name="Scaron" unicode="&#x160;" horiz-adv-x="1214" 
d="M1009 359q0 60 -20 106.5t-65.5 84t-122 70t-190.5 64.5q-109 31 -197 68t-150.5 85t-95.5 112.5t-33 150.5q0 84 36 153t101.5 119t155 77t196.5 27q153 0 265 -58t173 -156.5t61 -220.5h-123q0 95 -44.5 169.5t-128 117t-203.5 42.5t-201.5 -36.5t-122.5 -97
t-41 -134.5q0 -52 20 -95.5t65 -81t120.5 -69.5t185.5 -62q116 -31 205.5 -70t151.5 -90t94 -118t32 -155q0 -89 -37 -159.5t-104.5 -120t-159 -75.5t-200.5 -26q-97 0 -193 25t-175.5 78t-127 135.5t-47.5 198.5h123q0 -92 37 -155.5t98.5 -102t136 -56t148.5 -17.5
q115 0 199.5 34t131 95.5t46.5 143.5zM455 1850l172 -194l172 194h107v-12l-236 -262h-87l-235 263v11h107z" />
    <glyph glyph-name="scaron" unicode="&#x161;" horiz-adv-x="1038" 
d="M805 276q0 45 -22 87.5t-84.5 78.5t-182.5 61q-91 20 -161.5 45t-118.5 60t-73 84t-25 116q0 60 26.5 113.5t76 94t120 63.5t158.5 23q126 0 215 -42.5t137 -115.5t48 -165h-120q0 56 -32.5 106t-95 82t-152.5 32q-93 0 -150.5 -28t-84 -71t-26.5 -89q0 -36 11 -65.5
t42 -54.5t88 -47t147 -42q131 -30 214.5 -71.5t124 -101.5t40.5 -146q0 -67 -28 -122.5t-80.5 -96t-126 -62.5t-164.5 -22q-137 0 -232 46t-143.5 120t-48.5 159h120q5 -85 52.5 -133.5t115.5 -68.5t136 -20q91 0 153 27t94 71.5t32 94.5zM365 1522l172 -194l172 194h107
v-12l-236 -262h-87l-235 263v11h107z" />
    <glyph glyph-name="uni0162" unicode="&#x162;" horiz-adv-x="1223" 
d="M673 1456v-1456h-122v1456h122zM1172 1456v-106h-1119v106h1119zM570 0h93l-11 -64q62 -9 113.5 -45.5t51.5 -125.5q0 -45 -19.5 -82t-57.5 -63t-92.5 -40.5t-124.5 -14.5l-7 78q50 0 96 12.5t75.5 39t29.5 68.5q0 39 -19 60.5t-58 32.5t-98 16z" />
    <glyph glyph-name="uni0163" unicode="&#x163;" horiz-adv-x="659" 
d="M567 1082v-98h-543v98h543zM223 1360h120v-1096q0 -75 19.5 -113.5t52 -51t69.5 -12.5q27 0 51.5 3.5l45.5 6.5l5 -101q-22 -7 -57.5 -11.5t-70.5 -4.5q-69 0 -122 26t-83 88t-30 170v1096zM390 0h93l-11 -64q62 -9 113.5 -45.5t51.5 -125.5q0 -45 -19.5 -82t-57.5 -63
t-92.5 -40.5t-124.5 -14.5l-7 78q50 0 96 12.5t75.5 39t29.5 68.5q0 39 -19 60.5t-58 32.5t-98 16z" />
    <glyph glyph-name="Tcaron" unicode="&#x164;" horiz-adv-x="1223" 
d="M673 1456v-1456h-122v1456h122zM1172 1456v-106h-1119v106h1119zM438 1834l172 -194l172 194h107v-12l-236 -262h-87l-235 263v11h107z" />
    <glyph glyph-name="tcaron" unicode="&#x165;" horiz-adv-x="699" 
d="M567 1082v-98h-543v98h543zM223 1360h120v-1096q0 -75 19.5 -113.5t52 -51t69.5 -12.5q27 0 51.5 3.5l45.5 6.5l5 -101q-22 -7 -57.5 -11.5t-70.5 -4.5q-69 0 -122 26t-83 88t-30 170v1096zM662 1610v-78q0 -79 -30 -154.5t-86 -127.5l-71 52q36 54 54 107t18 121v80h115
z" />
    <glyph glyph-name="Tbar" unicode="&#x166;" horiz-adv-x="1223" 
d="M673 1456v-1456h-122v1456h122zM1172 1456v-106h-1119v106h1119zM914 938v-103h-612v103h612z" />
    <glyph glyph-name="tbar" unicode="&#x167;" horiz-adv-x="659" 
d="M567 1082v-98h-543v98h543zM223 1360h120v-1096q0 -75 19.5 -113.5t52 -51t69.5 -12.5q27 0 51.5 3.5l45.5 6.5l5 -101q-22 -7 -57.5 -11.5t-70.5 -4.5q-69 0 -122 26t-83 88t-30 170v1096zM627 721v-103h-612v103h612z" />
    <glyph glyph-name="Utilde" unicode="&#x168;" horiz-adv-x="1347" 
d="M1064 1456h123v-986q0 -163 -69 -272t-185.5 -163.5t-257.5 -54.5q-145 0 -261 54.5t-183.5 163.5t-67.5 272v986h122v-986q0 -127 50.5 -212.5t138.5 -128.5t201 -43t201 43t138 128.5t50 212.5v986zM934 1817l90 -5q0 -64 -26 -112.5t-70.5 -75.5t-99.5 -27
q-52 0 -86.5 17t-61.5 38.5t-56.5 38t-72.5 16.5q-46 0 -78 -31.5t-32 -86.5l-90 3q0 64 26 112t70.5 74.5t98.5 26.5q48 0 82 -16.5t63.5 -38t60.5 -38t72 -16.5q46 0 78 33t32 88z" />
    <glyph glyph-name="utilde" unicode="&#x169;" horiz-adv-x="1125" 
d="M850 250v832h121v-1082h-116zM872 451l62 2q0 -102 -24 -188.5t-75 -150t-132 -99t-195 -35.5q-79 0 -144.5 23t-112.5 71.5t-72.5 126.5t-25.5 189v692h119v-694q0 -86 19.5 -144.5t54 -93t79.5 -49.5t97 -15q132 0 208.5 50.5t109 134t32.5 180.5zM825 1502l90 -5
q0 -64 -26 -112.5t-70.5 -75.5t-99.5 -27q-52 0 -86.5 17t-61.5 38.5t-56.5 38t-72.5 16.5q-46 0 -78 -31.5t-32 -86.5l-90 3q0 64 26 112t70.5 74.5t98.5 26.5q48 0 82 -16.5t63.5 -38t60.5 -38t72 -16.5q46 0 78 33t32 88z" />
    <glyph glyph-name="Umacron" unicode="&#x16a;" horiz-adv-x="1347" 
d="M1064 1456h123v-986q0 -163 -69 -272t-185.5 -163.5t-257.5 -54.5q-145 0 -261 54.5t-183.5 163.5t-67.5 272v986h122v-986q0 -127 50.5 -212.5t138.5 -128.5t201 -43t201 43t138 128.5t50 212.5v986zM996 1766v-98h-619v98h619z" />
    <glyph glyph-name="umacron" unicode="&#x16b;" horiz-adv-x="1125" 
d="M850 250v832h121v-1082h-116zM872 451l62 2q0 -102 -24 -188.5t-75 -150t-132 -99t-195 -35.5q-79 0 -144.5 23t-112.5 71.5t-72.5 126.5t-25.5 189v692h119v-694q0 -86 19.5 -144.5t54 -93t79.5 -49.5t97 -15q132 0 208.5 50.5t109 134t32.5 180.5zM888 1451v-98h-619
v98h619z" />
    <glyph glyph-name="Ubreve" unicode="&#x16c;" horiz-adv-x="1347" 
d="M1064 1456h123v-986q0 -163 -69 -272t-185.5 -163.5t-257.5 -54.5q-145 0 -261 54.5t-183.5 163.5t-67.5 272v986h122v-986q0 -127 50.5 -212.5t138.5 -128.5t201 -43t201 43t138 128.5t50 212.5v986zM868 1809h102q0 -76 -34.5 -134t-99 -91t-154.5 -33
q-134 0 -211.5 72t-77.5 186h102q0 -69 42 -120t145 -51q100 0 143 51.5t43 119.5z" />
    <glyph glyph-name="ubreve" unicode="&#x16d;" horiz-adv-x="1125" 
d="M850 250v832h121v-1082h-116zM872 451l62 2q0 -102 -24 -188.5t-75 -150t-132 -99t-195 -35.5q-79 0 -144.5 23t-112.5 71.5t-72.5 126.5t-25.5 189v692h119v-694q0 -86 19.5 -144.5t54 -93t79.5 -49.5t97 -15q132 0 208.5 50.5t109 134t32.5 180.5zM760 1494h102
q0 -76 -34.5 -134t-99 -91t-154.5 -33q-134 0 -211.5 72t-77.5 186h102q0 -69 42 -120t145 -51q100 0 143 51.5t43 119.5z" />
    <glyph glyph-name="Uring" unicode="&#x16e;" horiz-adv-x="1347" 
d="M1064 1456h123v-986q0 -163 -69 -272t-185.5 -163.5t-257.5 -54.5q-145 0 -261 54.5t-183.5 163.5t-67.5 272v986h122v-986q0 -127 50.5 -212.5t138.5 -128.5t201 -43t201 43t138 128.5t50 212.5v986zM491 1717q0 53 25.5 96.5t69 69t98.5 25.5q81 0 137 -55.5t56 -135.5
q0 -54 -26 -96.5t-69.5 -66.5t-97.5 -24q-82 0 -137.5 53t-55.5 134zM567 1717q0 -48 33 -82t84 -34t83.5 33.5t32.5 82.5q0 50 -32.5 84.5t-83.5 34.5t-84 -34.5t-33 -84.5z" />
    <glyph glyph-name="uring" unicode="&#x16f;" horiz-adv-x="1125" 
d="M850 250v832h121v-1082h-116zM872 451l62 2q0 -102 -24 -188.5t-75 -150t-132 -99t-195 -35.5q-79 0 -144.5 23t-112.5 71.5t-72.5 126.5t-25.5 189v692h119v-694q0 -86 19.5 -144.5t54 -93t79.5 -49.5t97 -15q132 0 208.5 50.5t109 134t32.5 180.5zM382 1402
q0 53 25.5 96.5t69 69t98.5 25.5q81 0 137 -55.5t56 -135.5q0 -54 -26 -96.5t-69.5 -66.5t-97.5 -24q-82 0 -137.5 53t-55.5 134zM458 1402q0 -48 33 -82t84 -34t83.5 33.5t32.5 82.5q0 50 -32.5 84.5t-83.5 34.5t-84 -34.5t-33 -84.5z" />
    <glyph glyph-name="Uhungarumlaut" unicode="&#x170;" horiz-adv-x="1347" 
d="M1064 1456h123v-986q0 -163 -69 -272t-185.5 -163.5t-257.5 -54.5q-145 0 -261 54.5t-183.5 163.5t-67.5 272v986h122v-986q0 -127 50.5 -212.5t138.5 -128.5t201 -43t201 43t138 128.5t50 212.5v986zM723 1547l256 304h143l-278 -304h-121zM466 1547l203 304h137
l-231 -304h-109z" />
    <glyph glyph-name="uhungarumlaut" unicode="&#x171;" horiz-adv-x="1125" 
d="M850 250v832h121v-1082h-116zM872 451l62 2q0 -102 -24 -188.5t-75 -150t-132 -99t-195 -35.5q-79 0 -144.5 23t-112.5 71.5t-72.5 126.5t-25.5 189v692h119v-694q0 -86 19.5 -144.5t54 -93t79.5 -49.5t97 -15q132 0 208.5 50.5t109 134t32.5 180.5zM615 1232l256 304
h143l-278 -304h-121zM358 1232l203 304h137l-231 -304h-109z" />
    <glyph glyph-name="Uogonek" unicode="&#x172;" horiz-adv-x="1347" 
d="M1064 1456h123v-986q0 -163 -69 -272t-185.5 -163.5t-257.5 -54.5q-145 0 -261 54.5t-183.5 163.5t-67.5 272v986h122v-986q0 -127 50.5 -212.5t138.5 -128.5t201 -43t201 43t138 128.5t50 212.5v986zM880 77l59 -38q-45 -35 -86.5 -71.5t-67.5 -76.5t-26 -86
q0 -35 18.5 -59.5t67.5 -24.5q36 0 62 11t43 21l15 -85q-22 -15 -56.5 -29.5t-87.5 -14.5q-74 0 -121.5 42.5t-47.5 127.5q0 51 28 101t79.5 96.5t120.5 85.5z" />
    <glyph glyph-name="uogonek" unicode="&#x173;" horiz-adv-x="1125" 
d="M850 250v832h121v-1082h-116zM872 451l62 2q0 -102 -24 -188.5t-75 -150t-132 -99t-195 -35.5q-79 0 -144.5 23t-112.5 71.5t-72.5 126.5t-25.5 189v692h119v-694q0 -86 19.5 -144.5t54 -93t79.5 -49.5t97 -15q132 0 208.5 50.5t109 134t32.5 180.5zM907 39l58 -39
q-45 -34 -86 -70.5t-67 -77t-26 -86.5q0 -35 18 -59.5t67 -24.5q37 0 63 11t42 22l15 -85q-22 -15 -56.5 -29.5t-86.5 -14.5q-74 0 -122 42.5t-48 127.5q0 50 28 100.5t79.5 97t121.5 85.5z" />
    <glyph glyph-name="Wcircumflex" unicode="&#x174;" horiz-adv-x="1836" 
d="M554 385l316 1071h99l-79 -318l-338 -1138h-95zM187 1456l266 -1061l80 -395h-99l-373 1456h126zM1395 396l262 1060h126l-372 -1456h-99zM981 1456l311 -1071l96 -385h-95l-330 1138l-81 318h99zM964 1842l241 -258v-10h-111l-169 182l-167 -182h-108v12l238 256h76z
" />
    <glyph glyph-name="wcircumflex" unicode="&#x175;" horiz-adv-x="1545" 
d="M457 253l261 829h85l-50 -223l-273 -859h-85zM187 1082l229 -834l48 -248h-87l-314 1082h124zM1127 251l223 831h124l-315 -1082h-86zM820 1082l257 -822l65 -260h-85l-279 860l-47 222h89zM804 1527l241 -258v-10h-111l-169 182l-167 -182h-108v12l238 256h76z" />
    <glyph glyph-name="Ycircumflex" unicode="&#x176;" horiz-adv-x="1227" 
d="M171 1456l441 -792l444 792h143l-526 -907v-549h-123v549l-526 907h147zM652 1836l241 -258v-10h-111l-169 182l-167 -182h-108v12l238 256h76z" />
    <glyph glyph-name="ycircumflex" unicode="&#x177;" horiz-adv-x="974" 
d="M478 108l337 974h129l-457 -1255q-14 -37 -35.5 -82.5t-56 -87t-86 -68t-125.5 -26.5q-19 0 -49 4.5t-43 9.5l-1 100q11 -2 32 -4t29 -2q65 0 109.5 22t74.5 65.5t53 107.5zM163 1082l345 -929l33 -124l-88 -50l-420 1103h130zM552 1527l241 -258v-10h-111l-169 182
l-167 -182h-108v12l238 256h76z" />
    <glyph glyph-name="Ydieresis" unicode="&#x178;" horiz-adv-x="1227" 
d="M171 1456l441 -792l444 792h143l-526 -907v-549h-123v549l-526 907h147zM315 1705q0 34 22 58t60 24t60.5 -24t22.5 -58q0 -33 -22.5 -56t-60.5 -23t-60 23t-22 56zM753 1704q0 34 21.5 58t60.5 24q38 0 60.5 -24t22.5 -58q0 -33 -22.5 -56t-60.5 -23q-39 0 -60.5 23
t-21.5 56z" />
    <glyph glyph-name="Zacute" unicode="&#x179;" horiz-adv-x="1226" 
d="M1138 106v-106h-1002v106h1002zM1106 1367l-937 -1367h-78v94l936 1362h79v-89zM1052 1456v-105h-935v105h935zM542 1571l191 280h145l-232 -280h-104z" />
    <glyph glyph-name="zacute" unicode="&#x17a;" horiz-adv-x="997" 
d="M939 103v-103h-808v103h808zM895 993l-733 -993h-74v90l731 992h76v-89zM841 1082v-104h-733v104h733zM442 1256l191 280h145l-232 -280h-104z" />
    <glyph glyph-name="Zdotaccent" unicode="&#x17b;" horiz-adv-x="1226" 
d="M1138 106v-106h-1002v106h1002zM1106 1367l-937 -1367h-78v94l936 1362h79v-89zM1052 1456v-105h-935v105h935zM531 1698q0 33 22 57t60 24t60.5 -24t22.5 -57q0 -34 -22.5 -57t-60.5 -23t-60 23t-22 57z" />
    <glyph glyph-name="zdotaccent" unicode="&#x17c;" horiz-adv-x="997" 
d="M939 103v-103h-808v103h808zM895 993l-733 -993h-74v90l731 992h76v-89zM841 1082v-104h-733v104h733zM431 1383q0 33 22 57t60 24t60.5 -24t22.5 -57q0 -34 -22.5 -57t-60.5 -23t-60 23t-22 57z" />
    <glyph glyph-name="Zcaron" unicode="&#x17d;" horiz-adv-x="1226" 
d="M1138 106v-106h-1002v106h1002zM1106 1367l-937 -1367h-78v94l936 1362h79v-89zM1052 1456v-105h-935v105h935zM440 1839l172 -194l172 194h107v-12l-236 -262h-87l-235 263v11h107z" />
    <glyph glyph-name="zcaron" unicode="&#x17e;" horiz-adv-x="997" 
d="M939 103v-103h-808v103h808zM895 993l-733 -993h-74v90l731 992h76v-89zM841 1082v-104h-733v104h733zM340 1524l172 -194l172 194h107v-12l-236 -262h-87l-235 263v11h107z" />
    <glyph glyph-name="longs" unicode="&#x17f;" horiz-adv-x="465" 
d="M287 0h-119v1216q0 111 37.5 187t106.5 115t166 39q34 0 68 -4.5t68 -14.5l-16 -97q-23 7 -46.5 10t-58.5 3q-65 0 -111 -28t-70.5 -81t-24.5 -129v-1216z" />
    <glyph glyph-name="uni018F" unicode="&#x18f;" horiz-adv-x="1434" 
d="M726 -20q-142 0 -253.5 44t-189 127.5t-118 201t-40.5 263.5v123h1111v-102h-987v-53q0 -104 28.5 -194.5t87.5 -158t148.5 -106t212.5 -38.5q110 0 196 45.5t146 125.5t91 186.5t31 227.5v133q0 117 -29 219.5t-90 180t-157 121t-229 43.5q-139 0 -239.5 -35.5
t-170.5 -83.5l-39 93q36 29 94.5 60t145.5 52t209 21q152 0 269 -49t197 -138.5t121 -212.5t41 -271v-133q0 -153 -44.5 -280t-124.5 -219.5t-187 -142.5t-231 -50z" />
    <glyph glyph-name="florin" unicode="&#x192;" horiz-adv-x="671" 
d="M601 1082v-98h-245v-1073q0 -112 -36 -190t-104 -118t-163 -40q-31 0 -57 4.5t-55 14.5l13 100q16 -6 47 -11t52 -5q58 0 99 29t63 84t22 132v1073h-180v98h180v134q0 111 37 187t107 115t166 39q34 0 68 -4.5t68 -14.5l-15 -99q-24 7 -49 10t-60 3q-65 0 -110.5 -27.5
t-69 -80t-23.5 -128.5v-134h245z" />
    <glyph glyph-name="Ohorn" unicode="&#x1a0;" horiz-adv-x="1429" 
d="M1338 1567h110q0 -123 -36 -208t-112.5 -129.5t-197.5 -44.5v95q92 0 143 33.5t72 98t21 155.5zM1268 806v-155q0 -153 -40 -277t-114 -212t-178.5 -135t-233.5 -47q-102 0 -189.5 30.5t-157.5 88t-119.5 140t-76 186t-26.5 226.5v155q0 153 40.5 276.5t115.5 211.5
t179.5 135t231.5 47q103 0 191 -30.5t157.5 -88t118.5 -139.5t75 -186t26 -226zM1145 651v157q0 103 -19 189.5t-56.5 155t-91.5 116.5t-124 73t-154 25q-103 0 -185 -39t-140 -112t-88.5 -176t-30.5 -232v-157q0 -104 20 -191.5t58 -156t92 -116.5t123.5 -73t152.5 -25
q106 0 188 39t139 112t86.5 177t29.5 234z" />
    <glyph glyph-name="ohorn" unicode="&#x1a1;" horiz-adv-x="1147" 
d="M1082 1199h102q0 -103 -27.5 -176t-92 -111.5t-176.5 -38.5v85q83 0 125 29t55.5 83.5t13.5 128.5zM90 525v32q0 118 34 218t97.5 173t152.5 113.5t198 40.5q110 0 199 -40.5t152.5 -113.5t97.5 -173t34 -218v-32q0 -118 -34 -217.5t-97 -173t-152 -114t-198 -40.5
q-110 0 -199 40.5t-153 114t-98 173t-34 217.5zM209 557v-32q0 -89 24 -168.5t70 -141t114 -97t157 -35.5q87 0 154.5 35.5t113.5 97t70 141t24 168.5v32q0 88 -24 167t-70.5 141t-114 98t-155.5 36t-155.5 -36t-114 -98t-70 -141t-23.5 -167z" />
    <glyph glyph-name="Uhorn" unicode="&#x1af;" horiz-adv-x="1395" 
d="M1411 1545h106q0 -129 -36 -216.5t-116 -132.5t-214 -45v94q104 0 160 34.5t78 101.5t22 164zM1064 1456h123v-986q0 -163 -69 -272t-185.5 -163.5t-257.5 -54.5q-145 0 -261 54.5t-183.5 163.5t-67.5 272v986h122v-986q0 -127 50.5 -212.5t138.5 -128.5t201 -43t201 43
t138 128.5t50 212.5v986z" />
    <glyph glyph-name="uhorn" unicode="&#x1b0;" horiz-adv-x="1200" 
d="M1143 1180h99q0 -103 -27 -173t-92.5 -106t-181.5 -36v84q91 0 134 25.5t55.5 77t12.5 128.5zM850 250v832h121v-1082h-116zM872 451l62 2q0 -102 -24 -188.5t-75 -150t-132 -99t-195 -35.5q-79 0 -144.5 23t-112.5 71.5t-72.5 126.5t-25.5 189v692h119v-694
q0 -86 19.5 -144.5t54 -93t79.5 -49.5t97 -15q132 0 208.5 50.5t109 134t32.5 180.5z" />
    <glyph glyph-name="uni01F0" unicode="&#x1f0;" horiz-adv-x="469" 
d="M180 1082h119v-1171q0 -112 -36 -190t-104 -118t-163 -40q-31 0 -57 4.5t-55 14.5l13 100q16 -6 47 -11t52 -5q58 0 99 29t63 84t22 132v1171zM65 1481l172 -194l172 194h107v-12l-236 -262h-87l-235 263v11h107z" />
    <glyph glyph-name="Aringacute" unicode="&#x1fa;" horiz-adv-x="1280" 
d="M663 1369l-504 -1369h-128l550 1456h90zM1121 0l-504 1369l-7 87h89l551 -1456h-129zM1032 514v-106h-774v106h774zM611 1743l158 187h135l-202 -187h-91zM490 1537q0 67 45.5 111t109.5 44q62 0 107 -44t45 -111q0 -65 -45 -107.5t-107 -42.5q-64 0 -109.5 42.5
t-45.5 107.5zM557 1537q0 -36 26 -61t62 -25q35 0 60 25t25 61q0 39 -25 64.5t-60 25.5q-36 0 -62 -25.5t-26 -64.5z" />
    <glyph glyph-name="aringacute" unicode="&#x1fb;" horiz-adv-x="1098" 
d="M815 194v558q0 77 -32 133t-94 86t-153 30q-84 0 -149.5 -29.5t-103 -79t-37.5 -109.5l-119 1q0 61 29.5 118t84.5 102t131.5 71.5t169.5 26.5q115 0 203.5 -39t139 -117t50.5 -196v-523q0 -56 8.5 -116t24.5 -98v-13h-128q-12 36 -18.5 90.5t-6.5 103.5zM843 630l2 -92
h-234q-92 0 -164.5 -16.5t-122.5 -47.5t-76.5 -75.5t-26.5 -100.5q0 -58 29 -106t84 -76t130 -28q99 0 175.5 36.5t126.5 96.5t67 131l52 -69q-13 -49 -47.5 -102t-89 -98.5t-129 -74t-169.5 -28.5q-105 0 -184 40.5t-122 110t-43 157.5q0 79 34 142.5t98 108t155.5 68
t205.5 23.5h249zM548 1428l158 187h135l-202 -187h-91zM427 1222q0 67 45.5 111t109.5 44q62 0 107 -44t45 -111q0 -65 -45 -107.5t-107 -42.5q-64 0 -109.5 42.5t-45.5 107.5zM494 1222q0 -36 26 -61t62 -25q35 0 60 25t25 61q0 39 -25 64.5t-60 25.5q-36 0 -62 -25.5
t-26 -64.5z" />
    <glyph glyph-name="AEacute" unicode="&#x1fc;" horiz-adv-x="1865" 
d="M967 1358l-803 -1358h-146l881 1456h84zM1059 503v-114h-696v114h696zM1824 103v-103h-733v103h733zM1065 1456l61 -1456h-120l-61 1456h120zM1681 810v-103h-630v103h630zM1763 1456v-103h-733v103h733zM885 1577l191 280h145l-232 -280h-104z" />
    <glyph glyph-name="aeacute" unicode="&#x1fd;" horiz-adv-x="1733" 
d="M781 183v537q0 88 -28 150.5t-84.5 95.5t-140.5 33q-92 0 -158.5 -31t-101.5 -84t-35 -118l-119 12q0 70 29.5 129t84 103t130.5 68t170 24q112 0 195 -43t129.5 -128t46.5 -213v-500zM814 633v-97h-287q-108 0 -179 -34.5t-106.5 -90t-35.5 -121.5q0 -62 28.5 -109
t85 -73.5t139.5 -26.5q63 0 123 20.5t108.5 52.5t78.5 66.5t34 63.5l76 -77q-26 -51 -82.5 -104t-145 -88t-210.5 -35q-114 0 -193 38.5t-120.5 109.5t-41.5 166q0 78 28 140.5t83.5 107t137.5 68t190 23.5h289zM1266 -20q-116 0 -205.5 39t-150.5 110.5t-92 168.5t-31 212
v54q0 119 33.5 217.5t94.5 170.5t143 111.5t178 38.5q102 0 180.5 -32t132.5 -92.5t82 -146t28 -193.5v-100h-805v98h685v32q0 92 -32 167t-99 119.5t-172 44.5q-79 0 -141 -33.5t-105 -93.5t-65.5 -138.5t-22.5 -169.5v-54q0 -89 21 -166.5t65 -136t113 -91.5t165 -33
q113 0 191 36t132 82l48 -89q-29 -26 -77 -57t-120.5 -53t-173.5 -22zM789 1256l191 280h145l-232 -280h-104z" />
    <glyph glyph-name="Oslashacute" unicode="&#x1fe;" horiz-adv-x="1387" 
d="M1275 1506l-1000 -1590h-104l1001 1590h103zM1261 806v-155q0 -153 -40 -277t-114 -212t-178.5 -135t-233.5 -47q-102 0 -189.5 30.5t-157.5 88t-119.5 140t-76 186t-26.5 226.5v155q0 153 40.5 276.5t115.5 211.5t179.5 135t231.5 47q103 0 191 -30.5t157.5 -88
t118.5 -139.5t75 -186t26 -226zM1138 651v157q0 103 -19 189.5t-56.5 155t-91.5 116.5t-124 73t-154 25q-104 0 -186 -39t-139.5 -112t-88 -176t-30.5 -232v-157q0 -104 20 -191.5t58 -156t92 -116.5t123.5 -73t152.5 -25q106 0 188 39t139 112t86.5 177t29.5 234zM643 1639
l191 280h145l-232 -280h-104z" />
    <glyph glyph-name="oslashacute" unicode="&#x1ff;" horiz-adv-x="1141" 
d="M957 1214l-663 -1354h-93l663 1354h93zM90 525v32q0 118 34 218t97.5 173t152.5 113.5t198 40.5q110 0 199 -40.5t152.5 -113.5t97.5 -173t34 -218v-32q0 -118 -34 -217.5t-97 -173t-152 -114t-198 -40.5q-110 0 -199 40.5t-153 114t-98 173t-34 217.5zM209 557v-32
q0 -89 24 -168.5t70 -141t114 -97t157 -35.5q87 0 154.5 35.5t113.5 97t70 141t24 168.5v32q0 88 -24 167t-70.5 141t-114 98t-155.5 36t-155.5 -36t-114 -98t-70 -141t-23.5 -167zM453 1254l191 280h145l-232 -280h-104z" />
    <glyph glyph-name="uni0218" unicode="&#x218;" horiz-adv-x="1214" 
d="M1009 359q0 60 -20 106.5t-65.5 84t-122 70t-190.5 64.5q-109 31 -197 68t-150.5 85t-95.5 112.5t-33 150.5q0 84 36 153t101.5 119t155 77t196.5 27q153 0 265 -58t173 -156.5t61 -220.5h-123q0 95 -44.5 169.5t-128 117t-203.5 42.5t-201.5 -36.5t-122.5 -97
t-41 -134.5q0 -52 20 -95.5t65 -81t120.5 -69.5t185.5 -62q116 -31 205.5 -70t151.5 -90t94 -118t32 -155q0 -89 -37 -159.5t-104.5 -120t-159 -75.5t-200.5 -26q-97 0 -193 25t-175.5 78t-127 135.5t-47.5 198.5h123q0 -92 37 -155.5t98.5 -102t136 -56t148.5 -17.5
q115 0 199.5 34t131 95.5t46.5 143.5zM688 -112v-78q0 -79 -30 -154.5t-86 -127.5l-71 52q36 54 54 107t18 121v80h115z" />
    <glyph glyph-name="uni0219" unicode="&#x219;" horiz-adv-x="1038" 
d="M805 276q0 45 -22 87.5t-84.5 78.5t-182.5 61q-91 20 -161.5 45t-118.5 60t-73 84t-25 116q0 60 26.5 113.5t76 94t120 63.5t158.5 23q126 0 215 -42.5t137 -115.5t48 -165h-120q0 56 -32.5 106t-95 82t-152.5 32q-93 0 -150.5 -28t-84 -71t-26.5 -89q0 -36 11 -65.5
t42 -54.5t88 -47t147 -42q131 -30 214.5 -71.5t124 -101.5t40.5 -146q0 -67 -28 -122.5t-80.5 -96t-126 -62.5t-164.5 -22q-137 0 -232 46t-143.5 120t-48.5 159h120q5 -85 52.5 -133.5t115.5 -68.5t136 -20q91 0 153 27t94 71.5t32 94.5zM595 -114v-78q0 -79 -30 -154.5
t-86 -127.5l-71 52q36 54 54 107t18 121v80h115z" />
    <glyph glyph-name="uni021A" unicode="&#x21a;" horiz-adv-x="1223" 
d="M673 1456v-1456h-122v1456h122zM1172 1456v-106h-1119v106h1119zM671 -106v-78q0 -79 -30 -154.5t-86 -127.5l-71 52q36 54 54 107t18 121v80h115z" />
    <glyph glyph-name="uni021B" unicode="&#x21b;" horiz-adv-x="659" 
d="M567 1082v-98h-543v98h543zM223 1360h120v-1096q0 -75 19.5 -113.5t52 -51t69.5 -12.5q27 0 51.5 3.5l45.5 6.5l5 -101q-22 -7 -57.5 -11.5t-70.5 -4.5q-69 0 -122 26t-83 88t-30 170v1096zM491 -106v-78q0 -79 -30 -154.5t-86 -127.5l-71 52q36 54 54 107t18 121v80h115
z" />
    <glyph glyph-name="uni0237" unicode="&#x237;" horiz-adv-x="469" 
d="M180 1082h119v-1171q0 -112 -36 -190t-104 -118t-163 -40q-31 0 -57 4.5t-55 14.5l13 100q16 -6 47 -11t52 -5q58 0 99 29t63 84t22 132v1171z" />
    <glyph glyph-name="uni0259" unicode="&#x259;" horiz-adv-x="1056" 
d="M505 1103q101 0 187 -39t150 -110.5t99.5 -168.5t35.5 -213v-54q0 -118 -36 -217t-99.5 -170.5t-146 -111t-174.5 -39.5q-101 0 -180.5 33t-134.5 94t-84 146t-29 189v103h812v-103h-692v-29q0 -90 36 -165t105 -120t167 -45q75 0 136.5 33.5t106.5 93.5t69 139t24 169
v54q0 89 -25 166.5t-71 136.5t-111 92t-145 33q-117 0 -195 -33t-130 -87l-51 84q56 58 147.5 98.5t228.5 40.5z" />
    <glyph glyph-name="uni02BC" unicode="&#x2bc;" horiz-adv-x="365" 
d="M274 1536v-115q0 -61 -17 -120t-48 -110.5t-75 -91.5l-71 52q46 63 69 125.5t23 141.5v118h119z" />
    <glyph glyph-name="circumflex" unicode="&#x2c6;" horiz-adv-x="880" 
d="M475 1527l241 -258v-10h-111l-169 182l-167 -182h-108v12l238 256h76z" />
    <glyph glyph-name="caron" unicode="&#x2c7;" horiz-adv-x="837" 
d="M251 1521l172 -194l172 194h107v-12l-236 -262h-87l-235 263v11h107z" />
    <glyph glyph-name="uni02C9" unicode="&#x2c9;" horiz-adv-x="875" 
d="M757 1441v-98h-619v98h619z" />
    <glyph glyph-name="breve" unicode="&#x2d8;" horiz-adv-x="866" 
d="M614 1491h102q0 -76 -34.5 -134t-99 -91t-154.5 -33q-134 0 -211.5 72t-77.5 186h102q0 -69 42 -120t145 -51q100 0 143 51.5t43 119.5z" />
    <glyph glyph-name="dotaccent" unicode="&#x2d9;" horiz-adv-x="460" 
d="M149 1383q0 33 22 57t60 24t60.5 -24t22.5 -57q0 -34 -22.5 -57t-60.5 -23t-60 23t-22 57z" />
    <glyph glyph-name="ring" unicode="&#x2da;" horiz-adv-x="636" 
d="M118 1396q0 53 25.5 96.5t69 69t98.5 25.5q81 0 137 -55.5t56 -135.5q0 -54 -26 -96.5t-69.5 -66.5t-97.5 -24q-82 0 -137.5 53t-55.5 134zM194 1396q0 -48 33 -82t84 -34t83.5 33.5t32.5 82.5q0 50 -32.5 84.5t-83.5 34.5t-84 -34.5t-33 -84.5z" />
    <glyph glyph-name="ogonek" unicode="&#x2db;" horiz-adv-x="513" 
d="M289 39l59 -39q-45 -34 -86.5 -70.5t-67.5 -77t-26 -86.5q0 -35 18.5 -59.5t67.5 -24.5q36 0 62 11t43 22l15 -85q-22 -15 -56.5 -29.5t-87.5 -14.5q-74 0 -121.5 42.5t-47.5 127.5q0 50 28 100.5t79.5 97t120.5 85.5z" />
    <glyph glyph-name="tilde" unicode="&#x2dc;" horiz-adv-x="892" 
d="M690 1492l90 -5q0 -64 -26 -112.5t-70.5 -75.5t-99.5 -27q-52 0 -86.5 17t-61.5 38.5t-56.5 38t-72.5 16.5q-46 0 -78 -31.5t-32 -86.5l-90 3q0 64 26 112t70.5 74.5t98.5 26.5q48 0 82 -16.5t63.5 -38t60.5 -38t72 -16.5q46 0 78 33t32 88z" />
    <glyph glyph-name="hungarumlaut" unicode="&#x2dd;" horiz-adv-x="774" 
d="M378 1232l256 304h143l-278 -304h-121zM121 1232l203 304h137l-231 -304h-109z" />
    <glyph glyph-name="uni02F3" unicode="&#x2f3;" horiz-adv-x="622" 
d="M158 -231q0 61 45.5 102.5t108.5 41.5q62 0 106.5 -41.5t44.5 -102.5t-44.5 -100t-106.5 -39q-63 0 -108.5 39t-45.5 100zM231 -231q0 -30 23.5 -50.5t57.5 -20.5q33 0 56.5 20.5t23.5 50.5q0 32 -23.5 53.5t-56.5 21.5q-34 0 -57.5 -21.5t-23.5 -53.5z" />
    <glyph glyph-name="gravecomb" unicode="&#x300;" horiz-adv-x="0" 
d="M-656 1536l191 -280h-109l-226 280h144z" />
    <glyph glyph-name="acutecomb" unicode="&#x301;" horiz-adv-x="0" 
d="M-616 1256l192 280h144l-231 -280h-105z" />
    <glyph glyph-name="tildecomb" unicode="&#x303;" horiz-adv-x="0" 
d="M-271 1492l90 -5q0 -64 -26 -112.5t-70.5 -75.5t-99.5 -27q-52 0 -86.5 17t-61.5 38.5t-56.5 38t-72.5 16.5q-46 0 -78 -31.5t-32 -86.5l-90 3q0 64 26 112t70.5 74.5t98.5 26.5q48 0 82 -16.5t63.5 -38t60.5 -38t72 -16.5q46 0 78 33t32 88z" />
    <glyph glyph-name="hookabovecomb" unicode="&#x309;" horiz-adv-x="0" 
d="M-535 1235h-90l-1 125q59 5 95.5 15t54 29t17.5 51q0 26 -17 44t-46 29t-65 15.5t-73 4.5l7 78q68 0 122.5 -12t93 -35t58.5 -54.5t20 -71.5q0 -78 -52.5 -113.5t-122.5 -42.5z" />
    <glyph glyph-name="uni030F" unicode="&#x30f;" horiz-adv-x="0" 
d="M-554 1252h-121l-302 266h153zM-311 1252h-110l-249 266h141z" />
    <glyph glyph-name="dotbelowcomb" unicode="&#x323;" horiz-adv-x="0" 
d="M-672 -232q0 34 22 58t60 24t60.5 -24t22.5 -58q0 -33 -22.5 -56t-60.5 -23t-60 23t-22 56z" />
    <glyph glyph-name="tonos" unicode="&#x384;" horiz-adv-x="520" 
d="M200 1284l74 305h118l-109 -305h-83z" />
    <glyph glyph-name="dieresistonos" unicode="&#x385;" horiz-adv-x="982" 
d="M438 1413l36 252h133l-71 -252h-98zM154 1396q0 34 22 58t60 24t60.5 -24t22.5 -58q0 -33 -22.5 -56t-60.5 -23t-60 23t-22 56zM660 1395q0 34 22 58t60 24t60.5 -24t22.5 -58q0 -33 -22.5 -56t-60.5 -23t-60 23t-22 56z" />
    <glyph glyph-name="Alphatonos" unicode="&#x386;" horiz-adv-x="1280" 
d="M663 1369l-504 -1369h-128l550 1456h90zM1121 0l-504 1369l-7 87h89l551 -1456h-129zM1032 514v-106h-774v106h774zM183 1283l74 305h118l-109 -305h-83z" />
    <glyph glyph-name="anoteleia" unicode="&#x387;" horiz-adv-x="504" 
d="M164 718q0 35 22.5 59.5t61.5 24.5q40 0 63 -24.5t23 -59.5t-23 -58.5t-63 -23.5q-39 0 -61.5 23.5t-22.5 58.5z" />
    <glyph glyph-name="Epsilontonos" unicode="&#x388;" horiz-adv-x="1265" 
d="M1190 106v-106h-819v106h819zM408 1456v-1456h-123v1456h123zM1088 803v-105h-717v105h717zM1185 1456v-106h-814v106h814zM-94 1285l74 305h118l-109 -305h-83z" />
    <glyph glyph-name="Etatonos" unicode="&#x389;" horiz-adv-x="1550" 
d="M1264 803v-105h-884v105h884zM408 1456v-1456h-123v1456h123zM1363 1456v-1456h-123v1456h123zM-81 1286l74 305h118l-109 -305h-83z" />
    <glyph glyph-name="Iotatonos" unicode="&#x38a;" horiz-adv-x="646" 
d="M435 1456v-1456h-123v1456h123zM-65 1283l74 305h118l-109 -305h-83z" />
    <glyph glyph-name="Omicrontonos" unicode="&#x38c;" horiz-adv-x="1407" 
d="M1281 806v-155q0 -153 -40 -277t-114 -212t-178.5 -135t-233.5 -47q-127 0 -231.5 47t-180 135t-116.5 212t-41 277v155q0 153 40.5 276.5t115.5 211.5t179.5 135t231.5 47q129 0 233.5 -47t179.5 -135t115 -211.5t40 -276.5zM1158 651v157q0 129 -29.5 232t-87 176
t-140.5 112t-188 39q-104 0 -186 -39t-139.5 -112t-88 -176t-30.5 -232v-157q0 -130 31 -234t89 -177t140 -112t186 -39q106 0 188 39t139 112t86.5 177t29.5 234zM21 1283l74 305h118l-109 -305h-83z" />
    <glyph glyph-name="Upsilontonos" unicode="&#x38e;" horiz-adv-x="1327" 
d="M271 1456l441 -792l444 792h143l-526 -907v-549h-123v549l-526 907h147zM-106 1283l74 305h118l-109 -305h-83z" />
    <glyph glyph-name="Omegatonos" unicode="&#x38f;" horiz-adv-x="1362" 
d="M1097 729v118q0 118 -29 214.5t-83.5 166t-130.5 106.5t-172 37q-94 0 -170 -37t-130 -106.5t-82.5 -166t-28.5 -214.5v-118q0 -139 27.5 -243.5t74.5 -178t107 -119t124 -67.5v-100q-90 22 -172 81.5t-146.5 151.5t-102 212t-37.5 263v116q0 142 38.5 258t110 199.5
t170 128.5t217.5 45q120 0 219 -45t170.5 -128.5t110.5 -199.5t39 -258v-116q0 -143 -37 -262.5t-100.5 -211.5t-144.5 -151.5t-169 -82.5v100q64 22 122.5 68t104.5 119.5t73 178t27 242.5zM770 0v106h458v-106h-458zM140 0v106h464v-106h-464zM32 1283l74 305h118
l-109 -305h-83z" />
    <glyph glyph-name="iotadieresistonos" unicode="&#x390;" horiz-adv-x="615" 
d="M183 1082h120v-808q0 -75 20 -113.5t52 -51.5t69 -13q27 0 52 3.5t45 7.5l5 -101q-22 -7 -57 -11.5t-71 -4.5q-68 0 -121.5 26t-83.5 88t-30 170v808zM191 1391l36 252h133l-71 -252h-98zM-93 1374q0 34 22 58t60 24t60.5 -24t22.5 -58q0 -33 -22.5 -56t-60.5 -23t-60 23
t-22 56zM413 1373q0 34 22 58t60 24t60.5 -24t22.5 -58q0 -33 -22.5 -56t-60.5 -23t-60 23t-22 56z" />
    <glyph glyph-name="Alpha" unicode="&#x391;" horiz-adv-x="1280" 
d="M663 1369l-504 -1369h-128l550 1456h90zM1121 0l-504 1369l-7 87h89l551 -1456h-129zM1032 514v-106h-774v106h774z" />
    <glyph glyph-name="Beta" unicode="&#x392;" horiz-adv-x="1256" 
d="M687 700h-411l-2 105h354q107 0 183 31t115.5 92t39.5 151q0 92 -39 152.5t-117 89.5t-195 29h-307v-1350h-123v1456h430q111 0 199 -22t149.5 -69t94 -118.5t32.5 -170.5q0 -90 -39.5 -162.5t-112.5 -118t-174 -56.5zM677 0h-440l63 106h377q108 0 184.5 36.5
t117.5 104.5t41 162q0 82 -36 148t-110 104.5t-187 38.5h-256l2 105h361l22 -38q99 -10 172 -60t114 -127.5t41 -168.5q0 -133 -58.5 -224.5t-163 -139t-244.5 -47.5z" />
    <glyph glyph-name="Gamma" unicode="&#x393;" horiz-adv-x="1131" 
d="M1064 1456v-106h-755v-1350h-123v1456h878z" />
    <glyph glyph-name="uni0394" unicode="&#x394;" horiz-adv-x="1428" 
d="M723 1323l-549 -1323h-129l615 1456h86zM1247 0l-535 1327l-21 129h87l598 -1456h-129zM1274 106v-106h-1135v106h1135z" />
    <glyph glyph-name="uni0394" unicode="&#x2206;" horiz-adv-x="1428" 
d="M723 1323l-549 -1323h-129l615 1456h86zM1247 0l-535 1327l-21 129h87l598 -1456h-129zM1274 106v-106h-1135v106h1135z" />
    <glyph glyph-name="Epsilon" unicode="&#x395;" horiz-adv-x="1165" 
d="M1090 106v-106h-819v106h819zM308 1456v-1456h-123v1456h123zM988 803v-105h-717v105h717zM1085 1456v-106h-814v106h814z" />
    <glyph glyph-name="Zeta" unicode="&#x396;" horiz-adv-x="1226" 
d="M1138 106v-106h-1002v106h1002zM1106 1367l-937 -1367h-78v94l936 1362h79v-89zM1052 1456v-105h-935v105h935z" />
    <glyph glyph-name="Eta" unicode="&#x397;" horiz-adv-x="1450" 
d="M1164 803v-105h-884v105h884zM308 1456v-1456h-123v1456h123zM1263 1456v-1456h-123v1456h123z" />
    <glyph glyph-name="Theta" unicode="&#x398;" horiz-adv-x="1379" 
d="M966 778v-102h-554v102h554zM1253 806v-155q0 -153 -40 -277t-114 -212t-178.5 -135t-233.5 -47q-102 0 -189.5 30.5t-157.5 88t-119.5 140t-76 186t-26.5 226.5v155q0 153 40.5 276.5t115.5 211.5t179.5 135t231.5 47q103 0 191 -30.5t157.5 -88t118.5 -139.5t75 -186
t26 -226zM1130 651v157q0 103 -19 189.5t-56.5 155t-91.5 116.5t-124 73t-154 25q-103 0 -185 -39t-140 -112t-88.5 -176t-30.5 -232v-157q0 -104 20 -191.5t58 -156t92 -116.5t123.5 -73t152.5 -25q106 0 188 39t139 112t86.5 177t29.5 234z" />
    <glyph glyph-name="Iota" unicode="&#x399;" horiz-adv-x="546" 
d="M335 1456v-1456h-123v1456h123z" />
    <glyph glyph-name="Kappa" unicode="&#x39a;" horiz-adv-x="1293" 
d="M308 1456v-1456h-123v1456h123zM1209 1456l-628 -667l-317 -311l-12 138l254 264l548 576h155zM1106 0l-613 748l74 100l689 -848h-150z" />
    <glyph glyph-name="Lambda" unicode="&#x39b;" horiz-adv-x="1328" 
d="M689 1355l-487 -1355h-133l532 1456h89zM1120 0l-490 1358v98h90l532 -1456h-132z" />
    <glyph glyph-name="Mu" unicode="&#x39c;" horiz-adv-x="1772" 
d="M223 1456h124l538 -1282l539 1282h124l-616 -1456h-94zM185 1456h109l14 -820v-636h-123v1456zM1478 1456h109v-1456h-123v636z" />
    <glyph glyph-name="Nu" unicode="&#x39d;" horiz-adv-x="1455" 
d="M1269 1456v-1456h-124l-836 1244v-1244h-124v1456h124l838 -1243v1243h122z" />
    <glyph glyph-name="Xi" unicode="&#x39e;" horiz-adv-x="1146" 
d="M116 0v106h922v-106h-922zM214 681v105h717v-105h-717zM129 1351v105h881v-105h-881z" />
    <glyph glyph-name="Omicron" unicode="&#x39f;" horiz-adv-x="1387" 
d="M1261 806v-155q0 -153 -40 -277t-114 -212t-178.5 -135t-233.5 -47q-127 0 -231.5 47t-180 135t-116.5 212t-41 277v155q0 153 40.5 276.5t115.5 211.5t179.5 135t231.5 47q129 0 233.5 -47t179.5 -135t115 -211.5t40 -276.5zM1138 651v157q0 129 -29.5 232t-87 176
t-140.5 112t-188 39q-104 0 -186 -39t-139.5 -112t-88 -176t-30.5 -232v-157q0 -130 31 -234t89 -177t140 -112t186 -39q106 0 188 39t139 112t86.5 177t29.5 234z" />
    <glyph glyph-name="Pi" unicode="&#x3a0;" horiz-adv-x="1450" 
d="M1260 1456v-1456h-123v1350h-824v-1350h-124v1456h1071z" />
    <glyph glyph-name="Rho" unicode="&#x3a1;" horiz-adv-x="1261" 
d="M681 593h-416v106h416q130 0 211 42t118.5 115t37.5 164q0 89 -37.5 164t-118.5 120.5t-211 45.5h-373v-1350h-123v1456h496q160 0 269 -55t165 -153t56 -226q0 -134 -55.5 -230.5t-165 -147.5t-269.5 -51z" />
    <glyph glyph-name="Sigma" unicode="&#x3a3;" horiz-adv-x="1146" 
d="M1071 106v-106h-962v106h962zM1017 1456v-105h-911v105h911zM706 779v-36l-566 -743h-76v94l514 665l-514 604v93h76z" />
    <glyph glyph-name="Tau" unicode="&#x3a4;" horiz-adv-x="1223" 
d="M673 1456v-1456h-122v1456h122zM1172 1456v-106h-1119v106h1119z" />
    <glyph glyph-name="Upsilon" unicode="&#x3a5;" horiz-adv-x="1227" 
d="M171 1456l441 -792l444 792h143l-526 -907v-549h-123v549l-526 907h147z" />
    <glyph glyph-name="Phi" unicode="&#x3a6;" horiz-adv-x="1465" 
d="M782 193h-96q-138 0 -248 40t-188 112.5t-119.5 171t-41.5 213.5q0 154 73 276t206.5 192.5t315.5 70.5h100q136 0 246 -40t188 -113t119.5 -171t41.5 -213q0 -154 -72.5 -276t-206.5 -192.5t-318 -70.5zM686 299h98q154 0 259 55.5t159 153t54 224.5q0 94 -30.5 173
t-90.5 136.5t-147.5 89.5t-201.5 32h-102q-152 0 -257.5 -56t-160 -153.5t-54.5 -223.5q0 -95 30.5 -174t90.5 -136.5t149 -89t204 -31.5zM796 1456v-1456h-124v1456h124z" />
    <glyph glyph-name="Chi" unicode="&#x3a7;" horiz-adv-x="1254" 
d="M218 1456l410 -614l410 614h146l-482 -717l497 -739h-147l-424 635l-426 -635h-146l497 739l-482 717h147z" />
    <glyph glyph-name="Psi" unicode="&#x3a8;" horiz-adv-x="1423" 
d="M1170 1456h124v-518q0 -176 -74.5 -299t-204.5 -187t-297 -64h-25q-123 0 -227.5 36t-181 106.5t-119 173t-42.5 234.5v518h124v-518q0 -104 33 -186.5t93 -140t141.5 -87.5t179.5 -30h24q133 0 235 53t159.5 152.5t57.5 238.5v518zM766 1456v-1456h-124v1456h124z" />
    <glyph glyph-name="uni03A9" unicode="&#x3a9;" horiz-adv-x="1342" 
d="M1077 729v118q0 118 -29 214.5t-83.5 166t-130.5 106.5t-172 37q-94 0 -170 -37t-130 -106.5t-82.5 -166t-28.5 -214.5v-118q0 -139 27.5 -243.5t74.5 -178t107 -119t124 -67.5v-100q-90 22 -172 81.5t-146.5 151.5t-102 212t-37.5 263v116q0 142 38.5 258t110 199.5
t170 128.5t217.5 45q120 0 219 -45t170.5 -128.5t110.5 -199.5t39 -258v-116q0 -143 -37 -262.5t-100.5 -211.5t-144.5 -151.5t-169 -82.5v100q64 22 122.5 68t104.5 119.5t73 178t27 242.5zM750 0v106h458v-106h-458zM120 0v106h464v-106h-464z" />
    <glyph glyph-name="uni03A9" unicode="&#x2126;" horiz-adv-x="1342" 
d="M1077 729v118q0 118 -29 214.5t-83.5 166t-130.5 106.5t-172 37q-94 0 -170 -37t-130 -106.5t-82.5 -166t-28.5 -214.5v-118q0 -139 27.5 -243.5t74.5 -178t107 -119t124 -67.5v-100q-90 22 -172 81.5t-146.5 151.5t-102 212t-37.5 263v116q0 142 38.5 258t110 199.5
t170 128.5t217.5 45q120 0 219 -45t170.5 -128.5t110.5 -199.5t39 -258v-116q0 -143 -37 -262.5t-100.5 -211.5t-144.5 -151.5t-169 -82.5v100q64 22 122.5 68t104.5 119.5t73 178t27 242.5zM750 0v106h458v-106h-458zM120 0v106h464v-106h-464z" />
    <glyph glyph-name="Iotadieresis" unicode="&#x3aa;" horiz-adv-x="546" 
d="M335 1456v-1456h-123v1456h123zM-25 1717q0 34 22 58t60 24t60.5 -24t22.5 -58q0 -33 -22.5 -56t-60.5 -23t-60 23t-22 56zM413 1716q0 34 21.5 58t60.5 24q38 0 60.5 -24t22.5 -58q0 -33 -22.5 -56t-60.5 -23q-39 0 -60.5 23t-21.5 56z" />
    <glyph glyph-name="Upsilondieresis" unicode="&#x3ab;" horiz-adv-x="1227" 
d="M171 1456l441 -792l444 792h143l-526 -907v-549h-123v549l-526 907h147zM315 1705q0 34 22 58t60 24t60.5 -24t22.5 -58q0 -33 -22.5 -56t-60.5 -23t-60 23t-22 56zM753 1704q0 34 21.5 58t60.5 24q38 0 60.5 -24t22.5 -58q0 -33 -22.5 -56t-60.5 -23q-39 0 -60.5 23
t-21.5 56z" />
    <glyph glyph-name="alphatonos" unicode="&#x3ac;" horiz-adv-x="1154" 
d="M111 511v21q0 128 28 232.5t81 180t130.5 116.5t176.5 41q74 0 134.5 -21.5t107.5 -62.5t81.5 -99t57 -130t34.5 -156v-202q-12 -98 -43 -180.5t-82.5 -143.5t-124 -94.5t-167.5 -33.5q-98 0 -175 38.5t-130 109t-81 168t-28 216.5zM232 532v-21q0 -92 19 -170.5
t57 -136.5t98 -90t141 -32q79 0 137.5 29t99.5 79.5t67.5 115.5t40.5 137v163q-11 66 -35.5 135t-65 127.5t-100 94.5t-142.5 36q-82 0 -142 -36t-98.5 -100t-57.5 -148.5t-19 -182.5zM876 1082h103v-807q0 -55 7.5 -91t21.5 -57t32.5 -29.5t39.5 -8.5q15 0 26.5 2.5
t23.5 5.5l17 -94q-25 -15 -49 -19.5t-49 -4.5q-47 0 -82 16.5t-59.5 51.5t-36.5 91.5t-12 136.5v576zM572 1239l74 305h118l-109 -305h-83z" />
    <glyph glyph-name="epsilontonos" unicode="&#x3ad;" horiz-adv-x="1114" 
d="M538 580h194v-78h-185q-103 0 -174 -21.5t-108 -67t-37 -117.5q0 -47 21.5 -86t63 -67.5t101.5 -44t137 -15.5q100 0 174 31t115 82.5t41 114.5h120q0 -85 -39 -147.5t-103.5 -103t-144.5 -60.5t-163 -20q-96 0 -177 21.5t-140.5 62.5t-92.5 100t-33 134q0 68 28 120.5
t82 88.5t134.5 54.5t185.5 18.5zM732 524h-194q-96 0 -172.5 21t-129.5 58.5t-81 86.5t-28 105q0 74 30 131.5t86 96.5t134 59t174 20q88 0 166 -21.5t138 -62.5t94 -98.5t34 -129.5h-119q0 62 -42 109t-113 74t-158 27q-105 0 -172 -28t-99 -74t-32 -102q0 -43 17 -78.5
t52.5 -61t92.5 -39.5t137 -14h185v-79zM498 1238l74 305h118l-109 -305h-83z" />
    <glyph glyph-name="etatonos" unicode="&#x3ae;" horiz-adv-x="1141" 
d="M279 851v-851h-120v1082h110zM256 565l-61 -1q0 118 27 216.5t80.5 170.5t133.5 111.5t186 39.5q85 0 152 -22t113.5 -71t70.5 -128.5t24 -194.5v-1101h-120v1100q0 92 -19 152.5t-55 96t-84.5 50.5t-108.5 15q-97 0 -162 -36.5t-104 -99t-56 -139.5t-17 -159zM525 1239
l74 305h118l-109 -305h-83z" />
    <glyph glyph-name="iotatonos" unicode="&#x3af;" horiz-adv-x="615" 
d="M183 1082h120v-808q0 -75 20 -113.5t52 -51.5t69 -13q27 0 52 3.5t45 7.5l5 -101q-22 -7 -57 -11.5t-71 -4.5q-68 0 -121.5 26t-83.5 88t-30 170v808zM192 1218l74 305h118l-109 -305h-83z" />
    <glyph glyph-name="upsilondieresistonos" unicode="&#x3b0;" horiz-adv-x="1096" 
d="M156 1082h120v-676q0 -88 18 -149.5t50.5 -100t76.5 -56t96 -17.5q86 0 149.5 39t104.5 105t61.5 147.5t20.5 166.5q-1 150 -35 285.5t-83 255.5h131q27 -65 51.5 -143t39.5 -175t15 -221q0 -116 -28 -218.5t-84 -180t-140.5 -121t-197.5 -43.5q-83 0 -150.5 24.5
t-115.5 76.5t-74 133t-26 194v674zM475 1391l36 252h133l-71 -252h-98zM191 1374q0 34 22 58t60 24t60.5 -24t22.5 -58q0 -33 -22.5 -56t-60.5 -23t-60 23t-22 56zM697 1373q0 34 22 58t60 24t60.5 -24t22.5 -58q0 -33 -22.5 -56t-60.5 -23t-60 23t-22 56z" />
    <glyph glyph-name="alpha" unicode="&#x3b1;" horiz-adv-x="1154" 
d="M111 511v21q0 128 28 232.5t81 180t130.5 116.5t176.5 41q74 0 134.5 -21.5t107.5 -62.5t81.5 -99t57 -130t34.5 -156v-202q-12 -98 -43 -180.5t-82.5 -143.5t-124 -94.5t-167.5 -33.5q-98 0 -175 38.5t-130 109t-81 168t-28 216.5zM232 532v-21q0 -92 19 -170.5
t57 -136.5t98 -90t141 -32q79 0 137.5 29t99.5 79.5t67.5 115.5t40.5 137v163q-11 66 -35.5 135t-65 127.5t-100 94.5t-142.5 36q-82 0 -142 -36t-98.5 -100t-57.5 -148.5t-19 -182.5zM876 1082h103v-807q0 -55 7.5 -91t21.5 -57t32.5 -29.5t39.5 -8.5q15 0 26.5 2.5
t23.5 5.5l17 -94q-25 -15 -49 -19.5t-49 -4.5q-47 0 -82 16.5t-59.5 51.5t-36.5 91.5t-12 136.5v576z" />
    <glyph glyph-name="beta" unicode="&#x3b2;" horiz-adv-x="1213" 
d="M497 804h147q147 0 246 -53t150 -143t51 -203q0 -135 -57.5 -230t-159 -145t-233.5 -50q-74 0 -150.5 21t-141.5 65t-104.5 111.5t-39.5 160.5l55 31q0 -81 49.5 -146t134 -103t188.5 -38q110 0 185.5 40t114 111.5t38.5 167.5q0 90 -38 162.5t-111.5 115t-180.5 42.5
h-143v83zM595 1476q124 0 216 -49t142.5 -135.5t50.5 -198.5q0 -97 -49 -177.5t-140.5 -129t-219.5 -48.5h-98v87h94q104 0 168.5 34t94.5 95.5t30 143.5q0 69 -31 132t-95 103t-163 40q-83 0 -150.5 -40t-107 -110t-39.5 -160v-1461h-120v1461q0 118 57 211.5t151.5 147.5
t208.5 54z" />
    <glyph glyph-name="gamma" unicode="&#x3b3;" horiz-adv-x="1003" 
d="M564 101v-517h-119v517h119zM529 240l311 842h124l-411 -1082h-87zM169 1082l315 -842l60 -240h-87l-412 1082h124z" />
    <glyph glyph-name="delta" unicode="&#x3b4;" horiz-adv-x="1141" 
d="M218 1289q0 81 46 143t128 97t192 35q79 0 150 -15t140 -51l-10 -104q-57 25 -123.5 45t-157.5 20q-69 0 -124 -19.5t-87.5 -57t-32.5 -90.5q0 -32 13.5 -62.5t44.5 -57.5t84.5 -52t134.5 -46q145 -41 241 -120.5t144 -186.5t48 -230v-32q0 -114 -33 -210t-95.5 -166.5
t-151 -109.5t-197.5 -39q-110 0 -198.5 39t-151.5 109.5t-96.5 166.5t-33.5 210v32q0 133 51.5 233.5t132 163t167.5 78.5v8q-79 31 -129 73.5t-73 92.5t-23 103zM212 537v-32q0 -85 23.5 -161t68.5 -135t112.5 -92.5t155.5 -33.5t154.5 33.5t111.5 92.5t68 135t23 161v32
q0 79 -27.5 149t-76 126t-110.5 93t-131 49q-91 0 -160.5 -34t-116.5 -93t-71 -134t-24 -156z" />
    <glyph glyph-name="epsilon" unicode="&#x3b5;" horiz-adv-x="1114" 
d="M538 580h194v-78h-185q-103 0 -174 -21.5t-108 -67t-37 -117.5q0 -47 21.5 -86t63 -67.5t101.5 -44t137 -15.5q100 0 174 31t115 82.5t41 114.5h120q0 -85 -39 -147.5t-103.5 -103t-144.5 -60.5t-163 -20q-96 0 -177 21.5t-140.5 62.5t-92.5 100t-33 134q0 68 28 120.5
t82 88.5t134.5 54.5t185.5 18.5zM732 524h-194q-96 0 -172.5 21t-129.5 58.5t-81 86.5t-28 105q0 74 30 131.5t86 96.5t134 59t174 20q88 0 166 -21.5t138 -62.5t94 -98.5t34 -129.5h-119q0 62 -42 109t-113 74t-158 27q-105 0 -172 -28t-99 -74t-32 -102q0 -43 17 -78.5
t52.5 -61t92.5 -39.5t137 -14h185v-79z" />
    <glyph glyph-name="zeta" unicode="&#x3b6;" horiz-adv-x="1008" 
d="M864 1456h62v-78l-397 -503q-82 -102 -132.5 -187.5t-73.5 -163.5t-23 -160q0 -50 15 -88t45.5 -66.5t78.5 -49.5t114 -39l109 -31q74 -19 126 -40.5t80 -58.5t28 -103q0 -58 -27.5 -113.5t-66 -98.5t-71.5 -64l-68 58q29 24 56 55.5t44.5 69t17.5 79.5q0 31 -17.5 52
t-52.5 37t-88 29l-90 24q-95 25 -161.5 55.5t-109 71t-62 94t-19.5 124.5q0 72 23.5 159t80 190.5t153.5 223.5zM74 1456h806v-102h-806v102z" />
    <glyph glyph-name="eta" unicode="&#x3b7;" horiz-adv-x="1141" 
d="M279 851v-851h-120v1082h110zM256 565l-61 -1q0 118 27 216.5t80.5 170.5t133.5 111.5t186 39.5q85 0 152 -22t113.5 -71t70.5 -128.5t24 -194.5v-1101h-120v1100q0 92 -19 152.5t-55 96t-84.5 50.5t-108.5 15q-97 0 -162 -36.5t-104 -99t-56 -139.5t-17 -159z" />
    <glyph glyph-name="theta" unicode="&#x3b8;" horiz-adv-x="1174" 
d="M586 1477q85 0 155 -26t124.5 -77.5t92 -128t57 -177t19.5 -224.5v-227q0 -124 -19 -225t-56.5 -178t-91.5 -129t-124 -78.5t-155 -26.5q-84 0 -153.5 26.5t-124.5 78.5t-93 129t-58 178t-20 225v227q0 124 20 224.5t57.5 177t92 128t124 77.5t153.5 26zM586 1374
q-81 0 -142.5 -35.5t-102.5 -103t-61.5 -162.5t-20.5 -214v-84h656v84q0 95 -13.5 175.5t-39.5 143.5t-65.5 106.5t-92 66.5t-118.5 23zM588 83q66 0 118.5 24t91.5 69t65 109t39 144.5t13 174.5v69h-656v-69q0 -94 13 -174.5t40 -144.5t66.5 -109t92 -69t117.5 -24z" />
    <glyph glyph-name="iota" unicode="&#x3b9;" horiz-adv-x="615" 
d="M183 1082h120v-808q0 -75 20 -113.5t52 -51.5t69 -13q27 0 52 3.5t45 7.5l5 -101q-22 -7 -57 -11.5t-71 -4.5q-68 0 -121.5 26t-83.5 88t-30 170v808z" />
    <glyph glyph-name="kappa" unicode="&#x3ba;" horiz-adv-x="1112" 
d="M283 1082v-1082h-120v1082h120zM1007 1082l-533 -586h-233l-12 107h189l443 479h146zM904 0l-497 512l75 92l575 -604h-153z" />
    <glyph glyph-name="lambda" unicode="&#x3bb;" horiz-adv-x="1128" 
d="M535 905l-353 -905h-132l437 1102l87 -21zM253 1518q60 0 102 -19t70 -51t46.5 -70t31.5 -76l401 -1066q18 -46 35.5 -77t40.5 -46.5t55 -15.5q8 0 21.5 1t21.5 3l7 -101q-10 -4 -29.5 -7.5t-37.5 -3.5q-66 0 -108 25t-70 72.5t-52 112.5l-292 779l-109 281
q-19 49 -38.5 84t-47.5 53.5t-71 18.5q-8 0 -23.5 -1t-24.5 -3l-5 96q12 5 36 8t40 3z" />
    <glyph glyph-name="uni03BC" unicode="&#x3bc;" horiz-adv-x="1141" 
d="M860 1082h120v-1082h-109l-11 250v832zM878 503l60 2q0 -114 -21.5 -209.5t-68 -166.5t-119.5 -110t-176 -39q-80 0 -149 27t-117.5 91t-69.5 174l-13 178h77q0 -112 21.5 -184t58.5 -112t84 -55.5t100 -15.5q102 0 167.5 31.5t101.5 89t50 134t14 165.5zM163 1082h118
v-1498h-118v1498z" />
    <glyph glyph-name="nu" unicode="&#x3bd;" horiz-adv-x="985" 
d="M476 116l347 966h123l-405 -1082h-87zM162 1082l352 -969l18 -113h-88l-406 1082h124z" />
    <glyph glyph-name="xi" unicode="&#x3be;" horiz-adv-x="1005" 
d="M919 1432l-16 -99q-39 13 -80 22t-83.5 14t-86.5 5q-118 0 -193.5 -31t-111 -83.5t-35.5 -116.5q0 -55 21 -99t64.5 -75t113 -47.5t166.5 -16.5h131v-85h-135q-113 0 -202 25t-151 68.5t-95 101t-33 124.5q0 82 32.5 145t93 105.5t145 64.5t189.5 22q48 0 95 -5t91 -15
t80 -24zM674 881h135v-80h-131q-127 0 -226 -37t-155.5 -115.5t-56.5 -203.5q0 -105 46.5 -173.5t127.5 -110t183 -68.5l94 -24q79 -20 130.5 -42.5t77 -58t25.5 -93.5q0 -56 -29 -107t-67.5 -90t-67.5 -60l-70 59q25 23 52.5 49.5t47 60t19.5 77.5q0 27 -15.5 46t-50 34
t-91.5 30l-68 17q-100 25 -185 59.5t-147.5 85.5t-97 127.5t-34.5 185.5q0 106 41 186.5t115 135.5t175.5 82.5t222.5 27.5z" />
    <glyph glyph-name="omicron" unicode="&#x3bf;" horiz-adv-x="1148" 
d="M91 525v32q0 118 34.5 218t97.5 173t152 113.5t198 40.5q110 0 199.5 -40.5t153 -113.5t97.5 -173t34 -218v-32q0 -118 -34 -217.5t-97.5 -173t-152 -114t-198.5 -40.5t-199 40.5t-152.5 114t-98 173t-34.5 217.5zM211 557v-32q0 -89 23.5 -168.5t70 -141t114.5 -97
t156 -35.5t155.5 35.5t113.5 97t69.5 141t23.5 168.5v32q0 88 -23.5 167t-70 141t-114.5 98t-156 36q-87 0 -154.5 -36t-114 -98t-70 -141t-23.5 -167z" />
    <glyph glyph-name="pi" unicode="&#x3c0;" horiz-adv-x="1220" 
d="M1134 1082v-104h-1082v104h1082zM354 1082v-1082h-120v1082h120zM828 1082h121v-808q0 -75 19.5 -113.5t52 -51.5t69.5 -13q27 0 51.5 3.5t45.5 7.5l5 -101q-22 -7 -57.5 -11.5t-70.5 -4.5q-69 0 -122 26t-83.5 88t-30.5 170v808z" />
    <glyph glyph-name="rho" unicode="&#x3c1;" horiz-adv-x="1141" 
d="M159 -416v1024q0 122 33.5 214t93.5 154.5t138.5 94t167.5 31.5q106 0 187 -41t136.5 -116.5t84 -180t28.5 -232.5v-21q0 -119 -27.5 -216.5t-80 -168t-129 -108.5t-174.5 -38q-97 0 -172.5 29t-129 83t-86 129t-44.5 169q1 0 16 -6.5t29.5 -12.5l14.5 -6
q19 -76 60.5 -140t112 -103t172.5 -39q82 0 141.5 32t98.5 89.5t58 136t19 170.5v21q0 98 -18 182.5t-56.5 148.5t-98 100t-142.5 36q-86 0 -145.5 -36t-96 -96t-53.5 -131t-17 -140l-1 -1012h-120z" />
    <glyph glyph-name="sigma1" unicode="&#x3c2;" horiz-adv-x="1096" 
d="M574 1102q112 0 204.5 -44t147 -130t54.5 -213h-115q0 90 -37 153.5t-103 97t-151 33.5q-88 0 -152 -35.5t-106 -97t-62.5 -140t-20.5 -164.5v-42q0 -113 46.5 -197t135.5 -141t214 -88q83 -20 137.5 -44t82 -64t27.5 -108q0 -48 -26.5 -99.5t-63 -93t-67.5 -61.5l-66 58
q27 23 51.5 49.5t40 59.5t15.5 75q0 37 -15.5 60t-51.5 38t-98 28q-149 33 -257 100t-167 173t-59 255v42q0 114 31 212.5t91 172t145.5 114.5t194.5 41z" />
    <glyph glyph-name="sigma" unicode="&#x3c3;" horiz-adv-x="1139" 
d="M92 525v32q0 114 33.5 209.5t96 166.5t151 110t197.5 39q28 -1 52 -12t50.5 -24.5t62.5 -24.5q98 -38 168.5 -107.5t108 -164.5t37.5 -210v-32q0 -110 -33 -205.5t-95.5 -167.5t-151 -113t-197.5 -41q-110 0 -198.5 40.5t-151.5 114t-96.5 173t-33.5 217.5zM212 557v-32
q0 -89 23 -168.5t68.5 -141t112.5 -97t156 -35.5q88 0 154.5 35.5t111.5 97t68 141t23 168.5v32q0 83 -23 159t-68.5 135t-112.5 93t-155 34t-155 -34t-112 -93t-68 -135t-23 -159zM1133 1082v-104h-564v104h564z" />
    <glyph glyph-name="tau" unicode="&#x3c4;" horiz-adv-x="1048" 
d="M970 1082v-102h-893v102h893zM446 1082h120v-807q0 -75 19 -116t52 -57.5t74 -16.5q30 0 54 5.5t46 12.5l25 -91q-36 -20 -72.5 -26t-74.5 -6q-79 0 -133 30t-82 96t-28 174v802z" />
    <glyph glyph-name="upsilon" unicode="&#x3c5;" horiz-adv-x="1096" 
d="M156 1082h120v-676q0 -88 18 -149.5t50.5 -100t76.5 -56t96 -17.5q86 0 149.5 39t104.5 105t61.5 147.5t20.5 166.5q-1 150 -35 285.5t-83 255.5h131q27 -65 51.5 -143t39.5 -175t15 -221q0 -116 -28 -218.5t-84 -180t-140.5 -121t-197.5 -43.5q-83 0 -150.5 24.5
t-115.5 76.5t-74 133t-26 194v674z" />
    <glyph glyph-name="phi" unicode="&#x3c6;" horiz-adv-x="1404" 
d="M637 -478v1352q0 68 29.5 114t78 70t105.5 24q93 0 174 -39.5t142 -111.5t95 -170.5t34 -215.5q0 -111 -35 -213t-107.5 -181.5t-185 -125.5t-267.5 -46q-158 0 -269.5 45t-181.5 124t-102.5 183.5t-32.5 223.5q0 121 33 221.5t91.5 178t135.5 128.5l62 -88
q-64 -48 -109 -118t-68.5 -153t-25.5 -170q0 -87 23 -171t76.5 -152t144 -108.5t224.5 -40.5q167 0 271.5 68.5t154 174.5t49.5 219q-1 85 -23.5 163t-65 139.5t-102.5 97t-135 35.5q-40 0 -66.5 -28.5t-26.5 -72.5v-1356h-120z" />
    <glyph glyph-name="chi" unicode="&#x3c7;" horiz-adv-x="1093" 
d="M1013 1082l-777 -1497h-128l780 1497h125zM155 1094q63 0 107.5 -26t75 -66t51.5 -83.5t38 -79.5l429 -966q24 -49 46.5 -92.5t49.5 -70.5t63 -27q14 0 40.5 1.5t40.5 4.5l-19 -104q-11 -6 -33 -9t-37 -3q-48 0 -84 16.5t-64 50t-54 82.5t-56 114l-426 961
q-23 53 -46.5 96t-56 69t-83.5 26q-11 0 -33 -2t-35 -5l-5 101q15 5 42.5 8.5t48.5 3.5z" />
    <glyph glyph-name="psi" unicode="&#x3c8;" horiz-adv-x="1400" 
d="M122 1082h120v-491q0 -137 33.5 -234t94.5 -157.5t144 -88.5t181 -28q137 0 229 42t146 113.5t77.5 160t23.5 179.5q-1 139 -41 265.5t-98 238.5h131q32 -60 61 -133t48 -164t19 -206q0 -125 -32.5 -234t-102.5 -191t-182.5 -128t-273.5 -46q-131 0 -237.5 35.5
t-182.5 109.5t-117 190.5t-41 277.5v489zM633 1082h119v-1526h-119v1526z" />
    <glyph glyph-name="omega" unicode="&#x3c9;" horiz-adv-x="1689" 
d="M1284 1082h130q35 -67 66.5 -146t51.5 -178t20 -226q0 -114 -23 -214.5t-69.5 -176t-118.5 -118.5t-170 -43q-83 0 -149 30.5t-113 92.5t-72 156t-25 221v290h93v-292q0 -107 19.5 -182t54.5 -122.5t82.5 -69t103.5 -21.5q72 0 122.5 36.5t82.5 99.5t47 143.5t15 168.5
q-1 153 -43.5 291t-104.5 260zM275 1082h130q-62 -122 -104.5 -260t-43.5 -291q0 -71 9.5 -137t29.5 -122t51.5 -99t75 -66.5t100.5 -23.5t104.5 21.5t82.5 69t54.5 122.5t19.5 182v292h93v-290q0 -127 -25 -221t-72 -156t-113 -92.5t-149 -30.5q-79 0 -140.5 27.5
t-107 78.5t-75 120t-44 152t-14.5 174q0 127 20 226t51.5 178t66.5 146z" />
    <glyph glyph-name="iotadieresis" unicode="&#x3ca;" horiz-adv-x="615" 
d="M183 1082h120v-808q0 -75 20 -113.5t52 -51.5t69 -13q27 0 52 3.5t45 7.5l5 -101q-22 -7 -57 -11.5t-71 -4.5q-68 0 -121.5 26t-83.5 88t-30 170v808zM-53 1374q0 34 22 58t60 24t60.5 -24t22.5 -58q0 -33 -22.5 -56t-60.5 -23t-60 23t-22 56zM385 1373q0 34 21.5 58
t60.5 24q38 0 60.5 -24t22.5 -58q0 -33 -22.5 -56t-60.5 -23q-39 0 -60.5 23t-21.5 56z" />
    <glyph glyph-name="upsilondieresis" unicode="&#x3cb;" horiz-adv-x="1096" 
d="M156 1082h120v-676q0 -88 18 -149.5t50.5 -100t76.5 -56t96 -17.5q86 0 149.5 39t104.5 105t61.5 147.5t20.5 166.5q-1 150 -35 285.5t-83 255.5h131q27 -65 51.5 -143t39.5 -175t15 -221q0 -116 -28 -218.5t-84 -180t-140.5 -121t-197.5 -43.5q-83 0 -150.5 24.5
t-115.5 76.5t-74 133t-26 194v674zM231 1374q0 34 22 58t60 24t60.5 -24t22.5 -58q0 -33 -22.5 -56t-60.5 -23t-60 23t-22 56zM669 1373q0 34 21.5 58t60.5 24q38 0 60.5 -24t22.5 -58q0 -33 -22.5 -56t-60.5 -23q-39 0 -60.5 23t-21.5 56z" />
    <glyph glyph-name="omicrontonos" unicode="&#x3cc;" horiz-adv-x="1148" 
d="M91 525v32q0 118 34.5 218t97.5 173t152 113.5t198 40.5q110 0 199.5 -40.5t153 -113.5t97.5 -173t34 -218v-32q0 -118 -34 -217.5t-97.5 -173t-152 -114t-198.5 -40.5t-199 40.5t-152.5 114t-98 173t-34.5 217.5zM211 557v-32q0 -89 23.5 -168.5t70 -141t114.5 -97
t156 -35.5t155.5 35.5t113.5 97t69.5 141t23.5 168.5v32q0 88 -23.5 167t-70 141t-114.5 98t-156 36q-87 0 -154.5 -36t-114 -98t-70 -141t-23.5 -167zM518 1239l74 305h118l-109 -305h-83z" />
    <glyph glyph-name="upsilontonos" unicode="&#x3cd;" horiz-adv-x="1096" 
d="M156 1082h120v-676q0 -88 18 -149.5t50.5 -100t76.5 -56t96 -17.5q86 0 149.5 39t104.5 105t61.5 147.5t20.5 166.5q-1 150 -35 285.5t-83 255.5h131q27 -65 51.5 -143t39.5 -175t15 -221q0 -116 -28 -218.5t-84 -180t-140.5 -121t-197.5 -43.5q-83 0 -150.5 24.5
t-115.5 76.5t-74 133t-26 194v674zM476 1218l74 305h118l-109 -305h-83z" />
    <glyph glyph-name="omegatonos" unicode="&#x3ce;" horiz-adv-x="1689" 
d="M1284 1082h130q35 -67 66.5 -146t51.5 -178t20 -226q0 -114 -23 -214.5t-69.5 -176t-118.5 -118.5t-170 -43q-83 0 -149 30.5t-113 92.5t-72 156t-25 221v290h93v-292q0 -107 19.5 -182t54.5 -122.5t82.5 -69t103.5 -21.5q72 0 122.5 36.5t82.5 99.5t47 143.5t15 168.5
q-1 153 -43.5 291t-104.5 260zM275 1082h130q-62 -122 -104.5 -260t-43.5 -291q0 -71 9.5 -137t29.5 -122t51.5 -99t75 -66.5t100.5 -23.5t104.5 21.5t82.5 69t54.5 122.5t19.5 182v292h93v-290q0 -127 -25 -221t-72 -156t-113 -92.5t-149 -30.5q-79 0 -140.5 27.5
t-107 78.5t-75 120t-44 152t-14.5 174q0 127 20 226t51.5 178t66.5 146zM806 1217l74 305h118l-109 -305h-83z" />
    <glyph glyph-name="theta1" unicode="&#x3d1;" horiz-adv-x="1176" 
d="M1132 775l10 -101q-38 -14 -93.5 -24.5t-108.5 -10.5q-191 0 -322 66t-198 178.5t-67 252.5v19q0 106 40.5 180t108.5 113.5t151 39.5q77 0 137 -26.5t101.5 -77.5t63 -124.5t21.5 -167.5v-663q0 -154 -51.5 -253.5t-145 -147.5t-220.5 -48q-94 0 -172 29.5t-134.5 86.5
t-87.5 140.5t-31 192.5v329l120 2v-331q0 -114 37.5 -190.5t106 -114.5t161.5 -38q96 0 162.5 34t101 110t34.5 199v663q0 73 -12.5 127.5t-38 90.5t-63.5 54t-90 18q-48 0 -89 -23.5t-66 -73.5t-25 -130v-21q0 -103 47.5 -192t150.5 -143t269 -54q53 0 104 9.5t88 20.5z
" />
    <glyph glyph-name="Upsilon1" unicode="&#x3d2;" horiz-adv-x="1099" 
d="M617 676v-676h-123v676h123zM579 779l214 481q35 78 71 123.5t79.5 65t99.5 19.5q33 0 61.5 -7.5t51.5 -19.5l-30 -97q-7 5 -25.5 10.5t-41.5 5.5q-26 0 -52.5 -10t-53 -40.5t-54.5 -91.5l-289 -639l-89 11zM318 1261l214 -486l56 -185l-85 -11l-293 639
q-28 61 -54.5 91.5t-52.5 40.5t-53 10q-23 0 -42 -5.5t-26 -10.5l-29 96q24 13 52 20.5t61 7.5q55 0 98.5 -19t81 -64t72.5 -124z" />
    <glyph glyph-name="omega1" unicode="&#x3d6;" horiz-adv-x="1610" 
d="M1574 1083v-104h-1517v104h1517zM1228 1082h131q35 -67 66 -146t51 -178t20 -226q0 -91 -14 -174t-42 -152t-71 -120t-101.5 -78.5t-133.5 -27.5q-83 0 -149.5 30.5t-113 92.5t-71.5 156t-25 221v267h93v-269q0 -107 19.5 -182t54.5 -122.5t82.5 -69t103.5 -21.5
q53 0 93.5 23.5t70 66t48.5 99t28 122.5t9 137q-2 153 -44.5 291t-104.5 260zM257 1082h130q-61 -122 -104 -260t-44 -291q0 -71 9 -137t27.5 -122t48 -99t70 -66.5t93.5 -23.5q57 0 104.5 21.5t82.5 69t54 122.5t19 182v269h93v-267q0 -127 -25 -221t-71.5 -156t-113 -92.5
t-149.5 -30.5q-74 0 -132.5 27.5t-102 78.5t-71.5 120t-42 152t-14 174q0 127 20 226t52 178t66 146z" />
    <glyph glyph-name="uni0400" unicode="&#x400;" horiz-adv-x="1165" 
d="M1090 106v-106h-819v106h819zM308 1456v-1456h-123v1456h123zM988 803v-105h-717v105h717zM1085 1456v-106h-814v106h814zM503 1857l191 -280h-109l-227 280h145z" />
    <glyph glyph-name="uni0401" unicode="&#x401;" horiz-adv-x="1165" 
d="M1090 106v-106h-819v106h819zM308 1456v-1456h-123v1456h123zM988 803v-105h-717v105h717zM1085 1456v-106h-814v106h814zM321 1717q0 34 22 58t60 24t60.5 -24t22.5 -58q0 -33 -22.5 -56t-60.5 -23t-60 23t-22 56zM759 1716q0 34 21.5 58t60.5 24q38 0 60.5 -24
t22.5 -58q0 -33 -22.5 -56t-60.5 -23q-39 0 -60.5 23t-21.5 56z" />
    <glyph glyph-name="uni0402" unicode="&#x402;" horiz-adv-x="1525" 
d="M563 689v110q54 25 121 44.5t134 31t122 11.5q149 0 261.5 -49t175.5 -151t63 -262q0 -85 -28.5 -163t-87 -139.5t-149 -97t-214.5 -35.5l-1 101q93 0 160.5 26.5t111 73t64 107t20.5 127.5q0 121 -46.5 199t-131 115.5t-198.5 37.5q-66 0 -129.5 -10.5t-125.5 -30
t-122 -46.5zM610 1456v-1456h-123v1456h123zM1177 1456v-106h-1122v106h1122z" />
    <glyph glyph-name="uni0403" unicode="&#x403;" horiz-adv-x="1131" 
d="M1064 1456v-106h-755v-1350h-123v1456h878zM547 1577l191 280h145l-232 -280h-104z" />
    <glyph glyph-name="uni0404" unicode="&#x404;" horiz-adv-x="1353" 
d="M864 790v-105h-628v105h628zM1094 455h124q-15 -148 -81 -254t-180.5 -163.5t-274.5 -57.5q-124 0 -225 47t-173.5 134t-111 208t-38.5 268v181q0 148 38.5 269t111.5 208t176 134t231 47q155 0 267.5 -56.5t178.5 -162.5t81 -256h-124q-14 118 -62 200t-132 125.5
t-209 43.5q-102 0 -182 -39t-136 -112t-85.5 -174t-29.5 -225v-183q0 -96 18 -180t53 -152t86.5 -117t118.5 -75.5t148 -26.5q129 0 215 41t134 123t63 205z" />
    <glyph glyph-name="uni0405" unicode="&#x405;" horiz-adv-x="1214" 
d="M1009 359q0 60 -20 106.5t-65.5 84t-122 70t-190.5 64.5q-109 31 -197 68t-150.5 85t-95.5 112.5t-33 150.5q0 84 36 153t101.5 119t155 77t196.5 27q153 0 265 -58t173 -156.5t61 -220.5h-123q0 95 -44.5 169.5t-128 117t-203.5 42.5t-201.5 -36.5t-122.5 -97
t-41 -134.5q0 -52 20 -95.5t65 -81t120.5 -69.5t185.5 -62q116 -31 205.5 -70t151.5 -90t94 -118t32 -155q0 -89 -37 -159.5t-104.5 -120t-159 -75.5t-200.5 -26q-97 0 -193 25t-175.5 78t-127 135.5t-47.5 198.5h123q0 -92 37 -155.5t98.5 -102t136 -56t148.5 -17.5
q115 0 199.5 34t131 95.5t46.5 143.5z" />
    <glyph glyph-name="uni0406" unicode="&#x406;" horiz-adv-x="546" 
d="M335 1456v-1456h-123v1456h123z" />
    <glyph glyph-name="uni0407" unicode="&#x407;" horiz-adv-x="546" 
d="M335 1456v-1456h-123v1456h123zM-25 1717q0 34 22 58t60 24t60.5 -24t22.5 -58q0 -33 -22.5 -56t-60.5 -23t-60 23t-22 56zM413 1716q0 34 21.5 58t60.5 24q38 0 60.5 -24t22.5 -58q0 -33 -22.5 -56t-60.5 -23q-39 0 -60.5 23t-21.5 56z" />
    <glyph glyph-name="uni0408" unicode="&#x408;" horiz-adv-x="1128" 
d="M828 434v1022h123v-1022q0 -147 -57 -248t-156.5 -153.5t-225.5 -52.5q-131 0 -230.5 46t-154.5 140t-55 236h123q0 -105 37.5 -175.5t108.5 -105.5t171 -35q88 0 159.5 39t114 117t42.5 192z" />
    <glyph glyph-name="uni0409" unicode="&#x409;" horiz-adv-x="2162" 
d="M408 1456h123l-38 -673q-9 -167 -25 -295t-43 -220.5t-70 -151.5t-107 -87.5t-154 -28.5h-42v106l38 1q59 2 102 23t73.5 68t51 125.5t34 196t22.5 278.5zM1110 1456v-106h-658v106h658zM1165 850h403q159 0 266 -55t162 -151.5t55 -218.5q0 -92 -31 -169t-92 -135
t-151 -89.5t-209 -31.5h-483v1456h123v-1350h360q128 0 207 45.5t116 119t37 156.5q0 80 -37 152.5t-116 118.5t-207 46h-403v106z" />
    <glyph glyph-name="uni040A" unicode="&#x40a;" horiz-adv-x="2211" 
d="M1159 787v-106h-878v106h878zM310 1456v-1456h-123v1456h123zM1214 829h403q159 0 266 -53t162 -146t55 -213q0 -90 -31 -166t-92 -132t-151 -87.5t-209 -31.5h-483v1456h123v-1346h360q128 0 207 43.5t116 114t37 151.5q0 78 -37 147.5t-116 113t-207 43.5h-403v106z
" />
    <glyph glyph-name="uni040B" unicode="&#x40b;" horiz-adv-x="1648" 
d="M1475 0h-123v414q0 126 -41 201t-122 108t-200 33q-58 0 -113 -4.5t-109 -13.5t-107.5 -22t-106.5 -29v106q50 15 100.5 27.5t104 22t111 14.5t120.5 5q154 0 262.5 -44t166 -142.5t57.5 -261.5v-414zM617 1456v-1456h-124v1456h124zM1176 1456v-106h-1122v106h1122z" />
    <glyph glyph-name="uni040C" unicode="&#x40c;" horiz-adv-x="1293" 
d="M308 1456v-1456h-123v1456h123zM1209 1456l-628 -667l-317 -311l-12 138l254 264l548 576h155zM1106 0l-613 748l74 100l689 -848h-150zM533 1524l191 280h145l-232 -280h-104z" />
    <glyph glyph-name="uni040D" unicode="&#x40d;" horiz-adv-x="1455" 
d="M312 215l829 1241h124v-1456h-124v1244l-829 -1244h-123v1456h123v-1241zM618 1857l191 -280h-109l-227 280h145z" />
    <glyph glyph-name="uni040E" unicode="&#x40e;" horiz-adv-x="1286" 
d="M656 490l429 966h144l-557 -1206q-20 -42 -46.5 -89.5t-66.5 -88.5t-98.5 -67t-141.5 -26q-22 0 -52 3t-42 8l11 102q12 -3 39 -5t44 -2q66 0 109 27.5t72.5 72t53.5 93.5zM197 1456l489 -960l37 -110l-105 -21l-563 1091h142zM832 1814h102q0 -76 -34.5 -134t-99 -91
t-154.5 -33q-134 0 -211.5 72t-77.5 186h102q0 -69 42 -120t145 -51q100 0 143 51.5t43 119.5z" />
    <glyph glyph-name="uni040F" unicode="&#x40f;" horiz-adv-x="1444" 
d="M186 0v1456h124v-1350h823v1350h124v-1456h-1071zM788 95v-449h-123v449h123z" />
    <glyph glyph-name="uni0410" unicode="&#x410;" horiz-adv-x="1280" 
d="M663 1369l-504 -1369h-128l550 1456h90zM1121 0l-504 1369l-7 87h89l551 -1456h-129zM1032 514v-106h-774v106h774z" />
    <glyph glyph-name="uni0411" unicode="&#x411;" horiz-adv-x="1286" 
d="M1056 1456v-106h-755v-1350h-123v1456h878zM258 826h404q158 0 265.5 -52t162 -144.5t54.5 -214.5q0 -92 -31 -167.5t-92 -131.5t-151 -86t-208 -30h-484v1456h124v-1350h360q127 0 206 43t116 114t37 154q0 80 -37 149t-116 111.5t-206 42.5h-404v106z" />
    <glyph glyph-name="uni0412" unicode="&#x412;" horiz-adv-x="1256" 
d="M687 700h-411l-2 105h354q107 0 183 31t115.5 92t39.5 151q0 92 -39 152.5t-117 89.5t-195 29h-307v-1350h-123v1456h430q111 0 199 -22t149.5 -69t94 -118.5t32.5 -170.5q0 -90 -39.5 -162.5t-112.5 -118t-174 -56.5zM677 0h-440l63 106h377q108 0 184.5 36.5
t117.5 104.5t41 162q0 82 -36 148t-110 104.5t-187 38.5h-256l2 105h361l22 -38q99 -10 172 -60t114 -127.5t41 -168.5q0 -133 -58.5 -224.5t-163 -139t-244.5 -47.5z" />
    <glyph glyph-name="uni0413" unicode="&#x413;" horiz-adv-x="1131" 
d="M1064 1456v-106h-755v-1350h-123v1456h878z" />
    <glyph glyph-name="uni0414" unicode="&#x414;" horiz-adv-x="1483" 
d="M1312 106v-106h-1144v106h1144zM195 106v-459h-123v459h123zM1417 106l-1 -459h-123v459h124zM1163 1456v-106h-662v106h662zM1262 1456v-1456h-123v1456h123zM457 1456h123l-25 -525q-8 -141 -28.5 -261t-50 -220t-65.5 -178.5t-75.5 -135t-79 -91t-75.5 -45.5h-75v106
h63q25 24 63.5 81.5t80 155t74 243t44.5 345.5z" />
    <glyph glyph-name="uni0415" unicode="&#x415;" horiz-adv-x="1165" 
d="M1090 106v-106h-819v106h819zM308 1456v-1456h-123v1456h123zM988 803v-105h-717v105h717zM1085 1456v-106h-814v106h814z" />
    <glyph glyph-name="uni0416" unicode="&#x416;" horiz-adv-x="1802" 
d="M606 693l-546 763h149l458 -656h237l-13 -107h-285zM681 702l-502 -702h-156l580 809zM966 1456v-1456h-123v1456h123zM1744 1456l-546 -763h-281l-11 107h232l458 656h148zM1625 0l-501 702l78 107l579 -809h-156z" />
    <glyph glyph-name="uni0417" unicode="&#x417;" horiz-adv-x="1219" 
d="M609 709h-181v88h175q134 0 217 34.5t121 97.5t38 148q0 83 -40 149.5t-124 105.5t-216 39q-100 0 -183 -36.5t-132 -103.5t-49 -157h-124q0 93 39 167.5t106.5 127t156 80t186.5 27.5q115 0 207.5 -25.5t159 -76.5t102 -126t35.5 -175q0 -75 -33.5 -141t-97.5 -116
t-155.5 -78.5t-207.5 -28.5zM428 774h181q127 0 224 -25t161.5 -73t97.5 -118.5t33 -161.5q0 -99 -38.5 -176.5t-109.5 -131t-167 -81t-211 -27.5q-92 0 -182.5 25t-164 76.5t-118 132t-44.5 190.5h124q0 -90 49 -162.5t135.5 -114.5t200.5 -42q129 0 218.5 38t137 107.5
t47.5 161.5q0 78 -26 134.5t-76.5 92.5t-124.5 53t-172 17h-175v85z" />
    <glyph glyph-name="uni0418" unicode="&#x418;" horiz-adv-x="1455" 
d="M312 215l829 1241h124v-1456h-124v1244l-829 -1244h-123v1456h123v-1241z" />
    <glyph glyph-name="uni0419" unicode="&#x419;" horiz-adv-x="1455" 
d="M312 215l829 1241h124v-1456h-124v1244l-829 -1244h-123v1456h123v-1241zM921 1814h102q0 -76 -34.5 -134t-99 -91t-154.5 -33q-134 0 -211.5 72t-77.5 186h102q0 -69 42 -120t145 -51q100 0 143 51.5t43 119.5z" />
    <glyph glyph-name="uni041A" unicode="&#x41a;" horiz-adv-x="1308" 
d="M313 1456v-1456h-124v1456h124zM1225 1456l-647 -773h-315l-11 107h255l563 666h155zM1115 0l-614 697l71 108l697 -805h-154z" />
    <glyph glyph-name="uni041B" unicode="&#x41b;" horiz-adv-x="1439" 
d="M1154 1456v-106h-713v106h713zM1252 1456v-1456h-123v1456h123zM397 1456h123l-38 -673q-9 -167 -25 -295t-43 -220.5t-70 -151.5t-107 -87.5t-154 -28.5h-42v106l38 1q59 2 102 23t73.5 68t51 125.5t34 196t22.5 278.5z" />
    <glyph glyph-name="uni041C" unicode="&#x41c;" horiz-adv-x="1772" 
d="M223 1456h124l538 -1282l539 1282h124l-616 -1456h-94zM185 1456h109l14 -820v-636h-123v1456zM1478 1456h109v-1456h-123v636z" />
    <glyph glyph-name="uni041D" unicode="&#x41d;" horiz-adv-x="1450" 
d="M1164 803v-105h-884v105h884zM308 1456v-1456h-123v1456h123zM1263 1456v-1456h-123v1456h123z" />
    <glyph glyph-name="uni041E" unicode="&#x41e;" horiz-adv-x="1387" 
d="M1261 806v-155q0 -153 -40 -277t-114 -212t-178.5 -135t-233.5 -47q-127 0 -231.5 47t-180 135t-116.5 212t-41 277v155q0 153 40.5 276.5t115.5 211.5t179.5 135t231.5 47q129 0 233.5 -47t179.5 -135t115 -211.5t40 -276.5zM1138 651v157q0 129 -29.5 232t-87 176
t-140.5 112t-188 39q-104 0 -186 -39t-139.5 -112t-88 -176t-30.5 -232v-157q0 -130 31 -234t89 -177t140 -112t186 -39q106 0 188 39t139 112t86.5 177t29.5 234z" />
    <glyph glyph-name="uni041F" unicode="&#x41f;" horiz-adv-x="1450" 
d="M1260 1456v-1456h-123v1350h-824v-1350h-124v1456h1071z" />
    <glyph glyph-name="uni0420" unicode="&#x420;" horiz-adv-x="1261" 
d="M681 593h-416v106h416q130 0 211 42t118.5 115t37.5 164q0 89 -37.5 164t-118.5 120.5t-211 45.5h-373v-1350h-123v1456h496q160 0 269 -55t165 -153t56 -226q0 -134 -55.5 -230.5t-165 -147.5t-269.5 -51z" />
    <glyph glyph-name="uni0421" unicode="&#x421;" horiz-adv-x="1330" 
d="M1092 455h123q-15 -148 -80.5 -254t-180 -163.5t-274.5 -57.5q-124 0 -225 47t-173 134t-111 208t-39 268v182q0 148 39 268.5t112 207.5t175.5 134t229.5 47q156 0 268.5 -56.5t178 -162.5t80.5 -256h-123q-14 118 -62 200t-132 125.5t-210 43.5q-101 0 -181.5 -39
t-136.5 -111.5t-85.5 -173.5t-29.5 -225v-184q0 -119 28.5 -220t82.5 -175t133 -115t181 -41q129 0 215 41t134 123.5t63 204.5z" />
    <glyph glyph-name="uni0422" unicode="&#x422;" horiz-adv-x="1223" 
d="M673 1456v-1456h-122v1456h122zM1172 1456v-106h-1119v106h1119z" />
    <glyph glyph-name="uni0423" unicode="&#x423;" horiz-adv-x="1286" 
d="M656 490l429 966h144l-557 -1206q-20 -42 -46.5 -89.5t-66.5 -88.5t-98.5 -67t-141.5 -26q-22 0 -52 3t-42 8l11 102q12 -3 39 -5t44 -2q66 0 109 27.5t72.5 72t53.5 93.5zM197 1456l489 -960l37 -110l-105 -21l-563 1091h142z" />
    <glyph glyph-name="uni0424" unicode="&#x424;" horiz-adv-x="1522" 
d="M676 1309h174q134 0 244 -43.5t189.5 -121.5t123 -183t43.5 -229t-43.5 -229.5t-123 -184t-189.5 -122t-244 -43.5h-174q-134 0 -243.5 43.5t-189.5 121.5t-123 183t-43 229t43 229t123 183.5t189.5 122.5t243.5 44zM676 1206q-152 0 -259 -61.5t-164 -169t-57 -245.5
q0 -104 32 -191t94 -150t151 -98t203 -35h176q151 0 258 61t163.5 169t56.5 246q0 103 -32 190t-93.5 150.5t-150.5 98.5t-202 35h-176zM823 1517v-1577h-120v1577h120z" />
    <glyph glyph-name="uni0425" unicode="&#x425;" horiz-adv-x="1254" 
d="M218 1456l410 -614l410 614h146l-482 -717l497 -739h-147l-424 635l-426 -635h-146l497 739l-482 717h147z" />
    <glyph glyph-name="uni0426" unicode="&#x426;" horiz-adv-x="1462" 
d="M1394 108l-9 -459h-114v351h-143v108h266zM180 0v1456h124v-1350h823v1350h124v-1456h-1071z" />
    <glyph glyph-name="uni0427" unicode="&#x427;" horiz-adv-x="1364" 
d="M173 1456h124v-403q0 -126 41 -201.5t122 -108.5t199 -33q58 0 113 5t109 14t107.5 22t106.5 29v-106q-50 -15 -100.5 -28t-104 -22t-110.5 -14.5t-121 -5.5q-153 0 -262 44.5t-166.5 143t-57.5 261.5v403zM1054 1456h124v-1456h-124v1456z" />
    <glyph glyph-name="uni0428" unicode="&#x428;" horiz-adv-x="1897" 
d="M182 1456h125v-1350h581v1350h124v-1350h580v1350h123v-1456h-1533v1456z" />
    <glyph glyph-name="uni0429" unicode="&#x429;" horiz-adv-x="1931" 
d="M1853 103l-9 -454h-110v351h-128v103h247zM182 1456h125v-1350h581v1350h124v-1350h580v1350h123v-1456h-1533v1456z" />
    <glyph glyph-name="uni042A" unicode="&#x42a;" horiz-adv-x="1586" 
d="M-10 1353v103h529v-103h-529zM559 826h403q158 0 265.5 -52t162.5 -144.5t55 -214.5q0 -92 -31.5 -167.5t-92.5 -131.5t-151 -86t-208 -30h-483v1456h123v-1350h360q127 0 206 43t116 114t37 154q0 80 -37 149t-116 111.5t-206 42.5h-403v106z" />
    <glyph glyph-name="uni042B" unicode="&#x42b;" horiz-adv-x="1710" 
d="M266 826h403q158 0 265.5 -52t162.5 -144.5t55 -214.5q0 -92 -31 -167.5t-92 -131.5t-151 -86t-209 -30h-483v1456h123v-1350h360q128 0 207 43t115.5 114t36.5 154q0 80 -36.5 149t-115.5 111.5t-207 42.5h-403v106zM1516 1456v-1456h-123v1456h123z" />
    <glyph glyph-name="uni042C" unicode="&#x42c;" horiz-adv-x="1254" 
d="M258 826h404q158 0 265.5 -52t162 -144.5t54.5 -214.5q0 -92 -31 -167.5t-92 -131.5t-151 -86t-208 -30h-484v1456h124v-1350h360q127 0 206 43t116 114t37 154q0 80 -37 149t-116 111.5t-206 42.5h-404v106z" />
    <glyph glyph-name="uni042D" unicode="&#x42d;" horiz-adv-x="1353" 
d="M1117 785v-106h-623v106h623zM142 455h123q15 -123 63.5 -205t134 -123t214.5 -41q102 0 181 41t133 115t82.5 175t28.5 220v183q0 99 -19 184t-55.5 152.5t-89.5 115t-120.5 73t-148.5 25.5q-125 0 -209.5 -43.5t-132 -125.5t-62.5 -200h-123q15 150 80.5 256t178 162.5
t268.5 56.5q127 0 229.5 -47t175.5 -134t112 -208t39 -269v-181q0 -147 -39 -268t-111 -208t-173 -134t-225 -47q-160 0 -274.5 57.5t-180 163.5t-80.5 254z" />
    <glyph glyph-name="uni042E" unicode="&#x42e;" horiz-adv-x="1864" 
d="M333 1456v-1456h-123v1456h123zM684 788v-103h-361v103h361zM1735 806v-155q0 -153 -39.5 -277t-114 -212t-178.5 -135t-234 -47q-127 0 -231.5 47t-180 135t-116 212t-40.5 277v155q0 153 40.5 276.5t115.5 211.5t179 135t231 47q130 0 234 -47t179 -135t115 -211.5
t40 -276.5zM1613 651v157q0 129 -30 232t-87.5 176t-140 112t-188.5 39q-103 0 -185 -39t-139.5 -112t-88 -176t-30.5 -232v-157q0 -130 30.5 -234t88.5 -177t140.5 -112t185.5 -39q106 0 188.5 39t139.5 112t86.5 177t29.5 234z" />
    <glyph glyph-name="uni042F" unicode="&#x42f;" horiz-adv-x="1252" 
d="M1006 593h-494l-57 29q-149 46 -228.5 148t-79.5 248q0 141 60 238.5t171 148.5t263 51h446v-1456h-124v1350h-322q-184 0 -277.5 -88.5t-93.5 -242.5q0 -93 39.5 -165t114.5 -113t183 -41h400zM584 668l-358 -668h-133l365 668h126z" />
    <glyph glyph-name="uni0430" unicode="&#x430;" horiz-adv-x="1098" 
d="M815 194v558q0 77 -32 133t-94 86t-153 30q-84 0 -149.5 -29.5t-103 -79t-37.5 -109.5l-119 1q0 61 29.5 118t84.5 102t131.5 71.5t169.5 26.5q115 0 203.5 -39t139 -117t50.5 -196v-523q0 -56 8.5 -116t24.5 -98v-13h-128q-12 36 -18.5 90.5t-6.5 103.5zM843 630l2 -92
h-234q-92 0 -164.5 -16.5t-122.5 -47.5t-76.5 -75.5t-26.5 -100.5q0 -58 29 -106t84 -76t130 -28q99 0 175.5 36.5t126.5 96.5t67 131l52 -69q-13 -49 -47.5 -102t-89 -98.5t-129 -74t-169.5 -28.5q-105 0 -184 40.5t-122 110t-43 157.5q0 79 34 142.5t98 108t155.5 68
t205.5 23.5h249z" />
    <glyph glyph-name="uni0431" unicode="&#x431;" horiz-adv-x="1128" 
d="M859 1553h103q0 -75 -26 -125t-74 -81t-112.5 -48.5t-141.5 -29.5q-93 -14 -170 -61t-132 -128.5t-83 -201t-22 -278.5v-94h-103v94q0 176 34.5 312t98.5 233t153.5 155t199.5 76q101 16 161.5 39t87 56.5t26.5 81.5zM593 1011q106 0 191.5 -36t146 -101t92.5 -154
t32 -194v-32q0 -111 -33 -205t-96 -163.5t-151 -107.5t-198 -38q-109 0 -197.5 38t-151.5 107.5t-96.5 163.5t-33.5 205v32q0 29 6 57t16 55.5t21 54.5q35 91 98.5 162.5t153 113.5t200.5 42zM575 909q-117 0 -196.5 -53.5t-120.5 -141t-41 -188.5v-32q0 -82 23.5 -156.5
t68.5 -131.5t112.5 -90t155.5 -33t155 33t112 90t68 131.5t23 156.5v32q0 76 -23 145t-68.5 122.5t-113 84.5t-155.5 31z" />
    <glyph glyph-name="uni0432" unicode="&#x432;" horiz-adv-x="1146" 
d="M636 499h-380l-2 101h324q97 0 162.5 21.5t99 64t33.5 105.5q0 48 -19.5 84t-58 59t-96 34.5t-132.5 11.5h-278v-980h-119v1082h397q98 0 177 -17.5t134.5 -52.5t85 -89.5t29.5 -128.5q0 -50 -18.5 -93.5t-55 -78t-89.5 -56t-122 -26.5zM636 0h-418l46 102h372
q89 0 152 23.5t95.5 68.5t32.5 109q0 59 -32.5 103t-95.5 68.5t-152 24.5h-277l2 101h356l50 -38q82 -8 142.5 -45t93.5 -93.5t33 -122.5q0 -75 -28.5 -131t-81 -94t-126 -57t-164.5 -19z" />
    <glyph glyph-name="uni0433" unicode="&#x433;" horiz-adv-x="864" 
d="M831 1082v-104h-548v-978h-119v1082h667z" />
    <glyph glyph-name="uni0434" unicode="&#x434;" horiz-adv-x="1174" 
d="M349 1082h119l-18 -390q-7 -156 -34 -270.5t-67.5 -195t-88 -135t-95.5 -91.5h-66l2 103h31q28 36 59.5 80t60.5 109.5t50 162.5t28 237zM388 1082h600v-1082h-120v970h-480v112zM53 103h1047v-421h-119v318h-813v-318h-115v421z" />
    <glyph glyph-name="uni0435" unicode="&#x435;" horiz-adv-x="1059" 
d="M576 -20q-106 0 -195 39t-154 110t-101 168.5t-36 213.5v43q0 125 37.5 226t102 173.5t148 110.5t176.5 38q103 0 182.5 -36.5t134.5 -103t83 -157t28 -199.5v-73h-819v103h699v13q-2 91 -36.5 170.5t-102 129.5t-169.5 50q-77 0 -140 -32t-108.5 -91.5t-70.5 -141
t-25 -180.5v-43q0 -89 27 -167t76 -136.5t117 -92t151 -33.5q95 0 169.5 35.5t133.5 112.5l75 -58q-36 -52 -88 -95.5t-125 -70t-170 -26.5z" />
    <glyph glyph-name="uni0436" unicode="&#x436;" horiz-adv-x="1572" 
d="M514 500l-439 582h145l355 -474h201l-12 -108h-250zM586 512l-409 -512h-152l486 604zM839 1082v-1082h-119v1082h119zM1487 1082l-440 -582h-249l-13 108h201l355 474h146zM1384 0l-410 512l76 92l486 -604h-152z" />
    <glyph glyph-name="uni0437" unicode="&#x437;" horiz-adv-x="1038" 
d="M531 524h-174v82h165q99 0 158 23.5t85 66.5t26 100q0 56 -27.5 102t-87.5 74t-159 28q-75 0 -139 -27t-103 -74t-39 -109h-120q0 96 56 166t147.5 108t197.5 38q92 0 165 -20t124 -59t78 -96.5t27 -131.5q0 -56 -25 -105t-73.5 -86.5t-119.5 -58.5t-162 -21zM357 580
h174q101 0 175.5 -18.5t124.5 -54.5t75 -88.5t25 -120.5q0 -75 -30 -133.5t-85 -99.5t-130.5 -62.5t-167.5 -21.5q-100 0 -196.5 35t-159.5 108.5t-63 186.5h120q0 -63 38.5 -115t106 -82.5t154.5 -30.5q96 0 161 27t98 75.5t33 110.5q0 72 -31.5 117t-95.5 66t-161 21h-165
v80z" />
    <glyph glyph-name="uni0438" unicode="&#x438;" horiz-adv-x="1152" 
d="M284 195l584 887h120v-1082h-120v888l-584 -888h-119v1082h119v-887z" />
    <glyph glyph-name="uni0439" unicode="&#x439;" horiz-adv-x="1152" 
d="M284 195l584 887h120v-1082h-120v888l-584 -888h-119v1082h119v-887zM759 1471h102q0 -76 -34.5 -134t-99 -91t-154.5 -33q-134 0 -211.5 72t-77.5 186h102q0 -69 42 -120t145 -51q100 0 143 51.5t43 119.5z" />
    <glyph glyph-name="uni043A" unicode="&#x43a;" horiz-adv-x="1062" 
d="M284 1082v-1082h-120v1082h120zM997 1082l-497 -586h-258l-12 107h219l396 479h152zM888 0l-450 512l75 92l533 -604h-158z" />
    <glyph glyph-name="uni043B" unicode="&#x43b;" horiz-adv-x="1153" 
d="M891 1082v-104h-548v104h548zM989 1082v-1082h-120v1082h120zM311 1082h120l-24 -507q-6 -123 -19.5 -218t-37 -162.5t-59 -110.5t-85.5 -63.5t-117 -20.5h-45v108l38 2q43 1 75 17.5t55.5 51t39 92t25 140t14.5 194.5z" />
    <glyph glyph-name="uni043C" unicode="&#x43c;" horiz-adv-x="1498" 
d="M755 164l430 918h120l-507 -1082h-85l-505 1082h118zM289 1082v-1082h-119v1082h119zM1213 0v1082h121v-1082h-121z" />
    <glyph glyph-name="uni043D" unicode="&#x43d;" horiz-adv-x="1151" 
d="M895 598v-102h-641v102h641zM284 1082v-1082h-119v1082h119zM988 1082v-1082h-121v1082h121z" />
    <glyph glyph-name="uni043E" unicode="&#x43e;" horiz-adv-x="1148" 
d="M91 525v32q0 118 34.5 218t97.5 173t152 113.5t198 40.5q110 0 199.5 -40.5t153 -113.5t97.5 -173t34 -218v-32q0 -118 -34 -217.5t-97.5 -173t-152 -114t-198.5 -40.5t-199 40.5t-152.5 114t-98 173t-34.5 217.5zM211 557v-32q0 -89 23.5 -168.5t70 -141t114.5 -97
t156 -35.5t155.5 35.5t113.5 97t69.5 141t23.5 168.5v32q0 88 -23.5 167t-70 141t-114.5 98t-156 36q-87 0 -154.5 -36t-114 -98t-70 -141t-23.5 -167z" />
    <glyph glyph-name="uni043F" unicode="&#x43f;" horiz-adv-x="1152" 
d="M890 1082v-104h-632v104h632zM284 1082v-1082h-119v1082h119zM988 1082v-1082h-120v1082h120z" />
    <glyph glyph-name="uni0440" unicode="&#x440;" horiz-adv-x="1136" 
d="M275 874v-1290h-120v1498h112zM1027 551v-21q0 -121 -27.5 -221.5t-80.5 -174t-129.5 -114t-175.5 -40.5q-97 0 -173 30t-130 85.5t-87 130.5t-45 164v276q15 98 49 178t87 138t127.5 89t169.5 31q99 0 176.5 -38.5t130.5 -111t80.5 -174t27.5 -227.5zM907 530v21
q0 95 -19.5 176t-59 141.5t-100 94.5t-143.5 34q-86 0 -146.5 -28.5t-100 -75t-62.5 -101.5t-34 -108v-319q19 -76 61 -140t112 -103t172 -39q82 0 142 34.5t99.5 95t59 142t19.5 175.5z" />
    <glyph glyph-name="uni0441" unicode="&#x441;" horiz-adv-x="1056" 
d="M557 83q75 0 141.5 29t110 85t49.5 138h115q-5 -103 -63 -183t-150.5 -126t-202.5 -46q-114 0 -200.5 41.5t-144.5 115t-87.5 171.5t-29.5 212v42q0 114 29.5 212.5t87.5 172t144 114.5t200 41q116 0 208 -47t148 -133t61 -204h-115q-5 87 -46 150t-108 97t-148 34
q-92 0 -157.5 -35.5t-106 -97t-59 -140t-18.5 -164.5v-42q0 -86 18.5 -164.5t59 -140t106 -97t158.5 -35.5z" />
    <glyph glyph-name="uni0442" unicode="&#x442;" horiz-adv-x="974" 
d="M540 1082v-1082h-120v1082h120zM934 1082v-102h-894v102h894z" />
    <glyph glyph-name="uni0443" unicode="&#x443;" horiz-adv-x="974" 
d="M478 108l337 974h129l-457 -1255q-14 -37 -35.5 -82.5t-56 -87t-86 -68t-125.5 -26.5q-19 0 -49 4.5t-43 9.5l-1 100q11 -2 32 -4t29 -2q65 0 109.5 22t74.5 65.5t53 107.5zM163 1082l345 -929l33 -124l-88 -50l-420 1103h130z" />
    <glyph glyph-name="uni0444" unicode="&#x444;" horiz-adv-x="1485" 
d="M1374 532v-21q0 -119 -25.5 -216.5t-75.5 -168t-122 -109t-166 -38.5q-67 0 -119 17t-88.5 46.5t-58 67t-29.5 78.5v690q10 48 32 88.5t58 71t86 47.5t117 17q76 0 137.5 -26.5t109 -76t79.5 -119.5t48.5 -158t16.5 -190zM1254 511v21q0 78 -11 148t-34 128.5t-58.5 101
t-84 66t-110.5 23.5q-69 0 -111 -17t-63 -41t-30 -44v-733q11 -15 35.5 -34t66.5 -33.5t104 -14.5q77 0 133 32t92 90t53.5 136.5t17.5 170.5zM111 511v21q0 102 16.5 190t49 158t79.5 119.5t109 76t137 26.5q66 0 115.5 -17t85 -47.5t57.5 -71t33 -88.5v-681
q-8 -43 -30 -82t-57.5 -70t-86.5 -48.5t-119 -17.5q-93 0 -165.5 38.5t-122 109t-75.5 168t-26 216.5zM232 532v-21q0 -92 17 -170.5t52 -136.5t90 -90t132 -32q63 0 104.5 15.5t66.5 37t36 37.5v725q-9 20 -30.5 44t-63 41t-111.5 17q-77 0 -132.5 -36t-91 -100
t-52.5 -148.5t-17 -182.5zM679 -416v1952h120v-1952h-120z" />
    <glyph glyph-name="uni0445" unicode="&#x445;" horiz-adv-x="997" 
d="M205 1082l291 -437l293 437h142l-367 -530l383 -552h-141l-308 457l-308 -457h-141l382 552l-367 530h141z" />
    <glyph glyph-name="uni0446" unicode="&#x446;" horiz-adv-x="1167" 
d="M165 0v1082h119v-979h584v979h120v-1082h-823zM1098 103l-9 -424h-110v321h-128v103h247z" />
    <glyph glyph-name="uni0447" unicode="&#x447;" horiz-adv-x="1091" 
d="M926 1082v-1082h-119v1082h119zM885 591v-103q-46 -22 -105 -42t-124.5 -32.5t-131.5 -12.5q-134 0 -226.5 39t-139.5 128.5t-47 239.5v275h119v-275q0 -115 32 -181t97.5 -94t164.5 -28q70 1 137.5 14t126 32t97.5 40z" />
    <glyph glyph-name="uni0448" unicode="&#x448;" horiz-adv-x="1626" 
d="M165 1082h119v-979h482v979h120v-979h477v979h119v-1082h-1317v1082z" />
    <glyph glyph-name="uni0449" unicode="&#x449;" horiz-adv-x="1644" 
d="M1607 103l-9 -424h-110v321h-128v103h247zM159 1082h120v-979h481v979h121v-979h476v979h120v-1082h-1318v1082z" />
    <glyph glyph-name="uni044A" unicode="&#x44a;" horiz-adv-x="1290" 
d="M474 1082v-103h-439v103h439zM458 690h352q128 0 216.5 -44.5t134 -122t45.5 -176.5q0 -74 -25.5 -137t-76 -110t-124.5 -73.5t-170 -26.5h-430v1082h120v-979h310q99 0 159.5 34.5t88 90t27.5 117.5q0 60 -27.5 115.5t-88 91t-159.5 35.5h-352v103z" />
    <glyph glyph-name="uni044B" unicode="&#x44b;" horiz-adv-x="1538" 
d="M247 690h352q128 0 216.5 -44.5t134 -122t45.5 -176.5q0 -74 -25.5 -137t-76 -110t-124.5 -73.5t-170 -26.5h-429v1082h119v-979h310q99 0 160 34.5t88.5 90t27.5 117.5q0 60 -27.5 115.5t-88.5 91t-160 35.5h-352v103zM1361 1082v-1082h-119v1082h119z" />
    <glyph glyph-name="uni044C" unicode="&#x44c;" horiz-adv-x="1096" 
d="M247 690h352q128 0 216.5 -44.5t134 -122t45.5 -176.5q0 -74 -25.5 -137t-76 -110t-124.5 -73.5t-170 -26.5h-429v1082h119v-979h310q99 0 160 34.5t88.5 90t27.5 117.5q0 60 -27.5 115.5t-88.5 91t-160 35.5h-352v103z" />
    <glyph glyph-name="uni044D" unicode="&#x44d;" horiz-adv-x="1096" 
d="M517 999q-70 0 -136.5 -28t-109.5 -84.5t-43 -142.5h-117q0 106 58.5 186.5t151.5 126t196 45.5q110 0 196 -41t145.5 -114.5t90.5 -172t31 -212.5v-42q0 -114 -31.5 -212t-91 -172t-144.5 -115t-194 -41q-113 0 -205.5 47t-147.5 133.5t-55 206.5h117q0 -90 40 -153.5
t106 -97t145 -33.5q87 0 151.5 35.5t106.5 97t62.5 140.5t20.5 164v42q0 87 -20.5 165.5t-62.5 139.5t-106.5 96.5t-153.5 35.5zM914 599v-103h-544v103h544z" />
    <glyph glyph-name="uni044E" unicode="&#x44e;" horiz-adv-x="1666" 
d="M693 590v-102h-507v102h507zM289 1082v-1082h-119v1082h119zM596 525v32q0 118 34.5 218t98 173t152 113.5t197.5 40.5q111 0 200 -40.5t152.5 -113.5t97.5 -173t34 -218v-32q0 -118 -34 -217.5t-97 -173t-152 -114t-199 -40.5t-199 40.5t-152.5 114t-98 173t-34.5 217.5
zM716 557v-32q0 -89 24 -168.5t70 -141t114 -97t156 -35.5t155.5 35.5t113.5 97t70 141t24 168.5v32q0 88 -24 167t-70.5 141t-114.5 98t-156 36q-87 0 -154.5 -36t-114 -98t-70 -141t-23.5 -167z" />
    <glyph glyph-name="uni044F" unicode="&#x44f;" horiz-adv-x="1113" 
d="M393 496h132l-300 -496h-132zM520 1082h426v-1082h-120v980h-306q-95 0 -154.5 -31.5t-86.5 -82.5t-27 -109q0 -55 24 -104.5t76.5 -81.5t135.5 -32h381v-103h-381q-86 0 -152 24t-111.5 67.5t-69 103t-23.5 128.5q0 70 25.5 128.5t75 102.5t122 68t165.5 24z" />
    <glyph glyph-name="uni0450" unicode="&#x450;" horiz-adv-x="1059" 
d="M576 -20q-106 0 -195 39t-154 110t-101 168.5t-36 213.5v43q0 125 37.5 226t102 173.5t148 110.5t176.5 38q103 0 182.5 -36.5t134.5 -103t83 -157t28 -199.5v-73h-819v103h699v13q-2 91 -36.5 170.5t-102 129.5t-169.5 50q-77 0 -140 -32t-108.5 -91.5t-70.5 -141
t-25 -180.5v-43q0 -89 27 -167t76 -136.5t117 -92t151 -33.5q95 0 169.5 35.5t133.5 112.5l75 -58q-36 -52 -88 -95.5t-125 -70t-170 -26.5zM450 1535l191 -280h-109l-227 280h145z" />
    <glyph glyph-name="uni0451" unicode="&#x451;" horiz-adv-x="1059" 
d="M576 -20q-106 0 -195 39t-154 110t-101 168.5t-36 213.5v43q0 125 37.5 226t102 173.5t148 110.5t176.5 38q103 0 182.5 -36.5t134.5 -103t83 -157t28 -199.5v-73h-819v103h699v13q-2 91 -36.5 170.5t-102 129.5t-169.5 50q-77 0 -140 -32t-108.5 -91.5t-70.5 -141
t-25 -180.5v-43q0 -89 27 -167t76 -136.5t117 -92t151 -33.5q95 0 169.5 35.5t133.5 112.5l75 -58q-36 -52 -88 -95.5t-125 -70t-170 -26.5zM268 1395q0 34 22 58t60 24t60.5 -24t22.5 -58q0 -33 -22.5 -56t-60.5 -23t-60 23t-22 56zM706 1394q0 34 21.5 58t60.5 24
q38 0 60.5 -24t22.5 -58q0 -33 -22.5 -56t-60.5 -23q-39 0 -60.5 23t-21.5 56z" />
    <glyph glyph-name="uni0452" unicode="&#x452;" horiz-adv-x="1125" 
d="M853 434h120v-523q0 -112 -36 -190t-104 -118t-164 -40q-33 0 -62 4.5t-61 14.5l14 100q16 -6 50.5 -11t58.5 -5q59 0 100 29t62.5 84t21.5 132v523zM276 1536v-1536h-119v1536h119zM250 608l-53 30q5 96 38 180t89.5 148t133.5 100t170 36q81 0 145 -22t108.5 -69.5
t68 -123t23.5 -182.5v-705h-120v706q0 111 -31 174.5t-88 90.5t-135 27q-86 0 -150.5 -37.5t-108 -97t-66.5 -127t-24 -128.5zM585 1338v-103h-612v103h612z" />
    <glyph glyph-name="uni0453" unicode="&#x453;" horiz-adv-x="864" 
d="M831 1082v-104h-548v-978h-119v1082h667zM356 1234l191 280h145l-232 -280h-104z" />
    <glyph glyph-name="uni0454" unicode="&#x454;" horiz-adv-x="1096" 
d="M721 593v-103h-572v103h572zM570 83q75 0 141.5 29t110 85t49.5 138h114q-5 -103 -62.5 -183t-150 -126t-202.5 -46q-114 0 -200.5 41.5t-144.5 115t-87.5 171.5t-29.5 212v42q0 114 29.5 212.5t87.5 172t144 114.5t199 41q116 0 208.5 -47t148 -133t60.5 -204h-114
q-5 87 -46 150t-108 97t-149 34q-92 0 -157 -35.5t-105.5 -97t-59.5 -140t-19 -164.5v-42q0 -86 19 -164.5t59.5 -140t106 -97t158.5 -35.5z" />
    <glyph glyph-name="uni0455" unicode="&#x455;" horiz-adv-x="1038" 
d="M805 276q0 45 -22 87.5t-84.5 78.5t-182.5 61q-91 20 -161.5 45t-118.5 60t-73 84t-25 116q0 60 26.5 113.5t76 94t120 63.5t158.5 23q126 0 215 -42.5t137 -115.5t48 -165h-120q0 56 -32.5 106t-95 82t-152.5 32q-93 0 -150.5 -28t-84 -71t-26.5 -89q0 -36 11 -65.5
t42 -54.5t88 -47t147 -42q131 -30 214.5 -71.5t124 -101.5t40.5 -146q0 -67 -28 -122.5t-80.5 -96t-126 -62.5t-164.5 -22q-137 0 -232 46t-143.5 120t-48.5 159h120q5 -85 52.5 -133.5t115.5 -68.5t136 -20q91 0 153 27t94 71.5t32 94.5z" />
    <glyph glyph-name="uni0456" unicode="&#x456;" horiz-adv-x="460" 
d="M291 1082v-1082h-120v1082h120zM150 1395q0 34 21.5 57.5t60.5 23.5q38 0 60.5 -23.5t22.5 -57.5q0 -33 -22.5 -56.5t-60.5 -23.5q-39 0 -60.5 23.5t-21.5 56.5z" />
    <glyph glyph-name="uni0457" unicode="&#x457;" horiz-adv-x="457" 
d="M288 1082v-1082h-119v1082h119zM-68 1383q0 34 22 58t60 24t60.5 -24t22.5 -58q0 -33 -22.5 -56t-60.5 -23t-60 23t-22 56zM370 1382q0 34 21.5 58t60.5 24q38 0 60.5 -24t22.5 -58q0 -33 -22.5 -56t-60.5 -23q-39 0 -60.5 23t-21.5 56z" />
    <glyph glyph-name="uni0458" unicode="&#x458;" horiz-adv-x="468" 
d="M166 1082h120v-1211q0 -99 -32.5 -168t-95.5 -104.5t-156 -35.5q-25 0 -54 5t-52 14l2 100q17 -5 42 -9t48 -4q57 0 97 22.5t60.5 67.5t20.5 112v1211zM145 1395q0 34 22 57.5t60 23.5q39 0 61 -23.5t22 -57.5q0 -33 -22 -56.5t-61 -23.5q-38 0 -60 23.5t-22 56.5z" />
    <glyph glyph-name="uni0459" unicode="&#x459;" horiz-adv-x="1751" 
d="M304 1082h119l-24 -507q-6 -123 -19 -218t-36.5 -162.5t-59 -110.5t-85.5 -63.5t-117 -20.5h-45v108l38 2q42 1 74.5 17.5t55.5 51t39 92t25.5 140t14.5 194.5zM873 1082v-104h-540v104h540zM928 650h353q128 0 216.5 -42t133.5 -115t45 -166q0 -69 -25.5 -128.5
t-76 -104t-124 -69.5t-169.5 -25h-430v1082h120v-980h310q99 0 159.5 33t88 85t27.5 109q0 55 -27.5 105t-88 82t-159.5 32h-353v102z" />
    <glyph glyph-name="uni045A" unicode="&#x45a;" horiz-adv-x="1764" 
d="M895 653v-102h-641v102h641zM284 1082v-1082h-119v1082h119zM945 650h353q128 0 216 -42t133.5 -115t45.5 -166q0 -69 -25.5 -128.5t-76 -104t-124 -69.5t-169.5 -25h-431v1082h121v-980h310q99 0 159.5 33t88 85t27.5 109q0 55 -27.5 105t-88 82t-159.5 32h-353v102z
" />
    <glyph glyph-name="uni045B" unicode="&#x45b;" horiz-adv-x="1141" 
d="M276 1536v-1536h-119v1536h119zM250 608l-53 30q5 96 38 180t89.5 148t133.5 100t170 36q81 0 145 -22t108.5 -69.5t68 -123t23.5 -182.5v-705h-120v706q0 111 -31 174.5t-88 90.5t-135 27q-86 0 -150.5 -37.5t-108 -97t-66.5 -127t-24 -128.5zM596 1350v-103h-612v103
h612z" />
    <glyph glyph-name="uni045C" unicode="&#x45c;" horiz-adv-x="1062" 
d="M284 1082v-1082h-120v1082h120zM997 1082l-497 -586h-258l-12 107h219l396 479h152zM888 0l-450 512l75 92l533 -604h-158zM470 1233l191 280h145l-232 -280h-104z" />
    <glyph glyph-name="uni045D" unicode="&#x45d;" horiz-adv-x="1152" 
d="M284 195l584 887h120v-1082h-120v888l-584 -888h-119v1082h119v-887zM456 1514l191 -280h-109l-227 280h145z" />
    <glyph glyph-name="uni045E" unicode="&#x45e;" horiz-adv-x="974" 
d="M478 108l337 974h129l-457 -1255q-14 -37 -35.5 -82.5t-56 -87t-86 -68t-125.5 -26.5q-19 0 -49 4.5t-43 9.5l-1 100q11 -2 32 -4t29 -2q65 0 109.5 22t74.5 65.5t53 107.5zM163 1082l345 -929l33 -124l-88 -50l-420 1103h130zM700 1494h102q0 -76 -34.5 -134t-99 -91
t-154.5 -33q-134 0 -211.5 72t-77.5 186h102q0 -69 42 -120t145 -51q100 0 143 51.5t43 119.5z" />
    <glyph glyph-name="uni045F" unicode="&#x45f;" horiz-adv-x="1152" 
d="M520 103h120v-456h-120v456zM165 1082h119v-979h584v979h120v-1082h-823v1082z" />
    <glyph glyph-name="uni0460" unicode="&#x460;" horiz-adv-x="1819" 
d="M846 1456h105v-1042q0 -109 -29 -190.5t-81.5 -135.5t-123.5 -81t-155 -27t-155.5 27t-124 81t-82 135.5t-29.5 190.5v1042h124v-1042q0 -81 19.5 -142.5t56 -103t85 -62.5t106.5 -21q82 0 146.5 37.5t101 110.5t36.5 181v1042zM1524 1456h124v-1042q0 -145 -52 -242
t-142 -144.5t-205 -47.5q-82 0 -151.5 27t-121 81t-80 135.5t-28.5 190.5v1042h105v-1042q0 -81 20.5 -142.5t57.5 -103t87.5 -62.5t110.5 -21q79 0 141.5 37.5t98 110.5t35.5 181v1042z" />
    <glyph glyph-name="uni0461" unicode="&#x461;" horiz-adv-x="1687" 
d="M772 1082h102v-700q0 -101 -26.5 -176.5t-75 -126t-113.5 -75.5t-143 -25q-77 0 -142.5 25t-114 75.5t-75.5 126t-27 176.5v700h120v-700q0 -74 18 -130t50 -93.5t75.5 -57t95.5 -19.5q74 0 131.5 34t91 101t33.5 165v700zM1388 1082h120v-700q0 -135 -48 -224.5
t-131 -134t-188 -44.5q-76 0 -140 25t-111 75.5t-73 126t-26 176.5v700h102v-700q0 -74 18.5 -130t52 -93.5t78.5 -57t99 -19.5q53 0 98 19.5t78.5 57t52 93.5t18.5 130v700z" />
    <glyph glyph-name="uni0462" unicode="&#x462;" horiz-adv-x="1254" 
d="M258 826h404q158 0 265.5 -52t162 -144.5t54.5 -214.5q0 -92 -31 -167.5t-92 -131.5t-151 -86t-208 -30h-484v1456h124v-1350h360q127 0 206 43t116 114t37 154q0 80 -37 149t-116 111.5t-206 42.5h-404v106zM609 1230v-103h-612v103h612z" />
    <glyph glyph-name="uni0463" unicode="&#x463;" horiz-adv-x="1096" 
d="M246 708h352q129 0 217 -45.5t133.5 -125t45.5 -181.5q0 -101 -45.5 -181.5t-133.5 -127.5t-217 -47h-429v1548h119v-1445h310q99 0 160 36t88.5 93t27.5 122q0 62 -27.5 119.5t-88.5 95t-160 37.5h-352v102zM614 1185v-103h-644v103h644z" />
    <glyph glyph-name="uni0464" unicode="&#x464;" horiz-adv-x="1831" 
d="M1248 814v-103h-975v103h975zM1554 456h123q-15 -148 -81 -254t-180 -163.5t-275 -57.5q-124 0 -224.5 47t-173 134t-111 208t-38.5 268v182q0 148 38.5 268.5t111.5 207.5t175.5 134t230.5 47q155 0 268 -56.5t178.5 -162.5t80.5 -256h-123q-15 118 -62.5 200
t-132 125.5t-209.5 43.5q-101 0 -181.5 -39t-136.5 -111.5t-85.5 -173.5t-29.5 -225v-184q0 -96 18.5 -180t53.5 -152t86 -117t118 -75.5t148 -26.5q129 0 215 41t134 123.5t64 204.5zM334 1456v-1456h-123v1456h123z" />
    <glyph glyph-name="uni0465" unicode="&#x465;" horiz-adv-x="1524" 
d="M1127 602v-103h-890v103h890zM996 83q76 0 142.5 29t110 85t48.5 138h115q-5 -103 -63 -183t-150 -126t-203 -46q-113 0 -200 41.5t-145 115t-87.5 171.5t-29.5 212v42q0 114 29.5 212.5t88 172t144.5 114.5t199 41q116 0 208 -47t148 -133t61 -204h-115q-5 87 -46 150
t-107.5 97t-148.5 34q-92 0 -157 -35.5t-105.5 -97t-59.5 -140t-19 -164.5v-42q0 -86 18.5 -164.5t59 -140t106 -97t158.5 -35.5zM286 1082v-1082h-119v1082h119z" />
    <glyph glyph-name="uni0466" unicode="&#x466;" horiz-adv-x="1230" 
d="M636 1302l-470 -1302h-129l535 1456h87zM1093 0l-467 1306l-22 150h87l530 -1456h-128zM980 582v-108h-704v108h704zM684 546v-546h-121v546h121z" />
    <glyph glyph-name="uni0467" unicode="&#x467;" horiz-adv-x="1081" 
d="M490 809l-340 -809h-124l452 1082h96zM912 0l-344 809l-82 273h97l453 -1082h-124zM822 449v-103h-577v103h577zM593 419v-419h-119v419h119z" />
    <glyph glyph-name="uni0468" unicode="&#x468;" horiz-adv-x="1799" 
d="M828 582v-107h-538v107h538zM1165 1302l-470 -1302h-129l535 1456h87zM1622 0l-467 1306l-22 150h87l530 -1456h-128zM1509 582v-108h-704v108h704zM1213 546v-546h-121v546h121zM352 1456v-1456h-123v1456h123z" />
    <glyph glyph-name="uni0469" unicode="&#x469;" horiz-adv-x="1543" 
d="M721 449v-103h-468v103h468zM937 809l-340 -809h-124l452 1082h96zM1359 0l-344 809l-82 273h97l453 -1082h-124zM1269 449v-103h-577v103h577zM1040 419v-419h-119v419h119zM321 1082v-1082h-119v1082h119z" />
    <glyph glyph-name="uni046A" unicode="&#x46a;" horiz-adv-x="1670" 
d="M281 0h-124v380q0 145 53.5 233t153.5 127.5t239 39.5h464q140 0 239.5 -39.5t153 -127.5t53.5 -233v-380h-124v380q0 111 -35 175.5t-106 91.5t-181 27h-464q-163 0 -242.5 -63.5t-79.5 -230.5v-380zM1278 1456v-106h-878v106h878zM819 736l444 720h142l-510 -801h-86z
M413 1456l445 -724l9 -77h-86l-510 801h142zM898 753v-753h-123v753h123z" />
    <glyph glyph-name="uni046B" unicode="&#x46b;" horiz-adv-x="1448" 
d="M279 0h-120v195q0 146 51 233.5t147 127t229 39.5h277q133 0 228.5 -39.5t146.5 -127.5t51 -233v-195h-120v195q0 113 -33 177.5t-101 92t-172 27.5h-277q-104 0 -172 -27.5t-101.5 -92t-33.5 -177.5v-195zM1100 1083v-104h-727v104h727zM709 549l344 533h137l-407 -611
h-80zM403 1082l346 -536l4 -75h-79l-408 611h137zM786 581v-581h-119v581h119z" />
    <glyph glyph-name="uni046C" unicode="&#x46c;" horiz-adv-x="2214" 
d="M1197 781v-103h-901v103h901zM333 1456v-1456h-123v1456h123zM825 0h-124v380q0 145 53.5 233t153.5 127.5t239 39.5h464q140 0 239.5 -39.5t152.5 -127.5t53 -233v-380h-123v380q0 111 -35 175.5t-106 91.5t-181 27h-464q-163 0 -242.5 -63.5t-79.5 -230.5v-380z
M1822 1456v-106h-878v106h878zM1363 736l444 720h142l-510 -801h-86zM957 1456l445 -724l9 -77h-86l-510 801h142zM1442 753v-753h-124v753h124z" />
    <glyph glyph-name="uni046D" unicode="&#x46d;" horiz-adv-x="1899" 
d="M1110 595v-103h-889v103h889zM288 1082v-1082h-119v1082h119zM730 0h-120v195q0 146 51 233.5t147 127t229 39.5h277q133 0 228.5 -39.5t146.5 -127.5t51 -233v-195h-120v195q0 113 -33 177.5t-101 92t-172 27.5h-277q-104 0 -172 -27.5t-101.5 -92t-33.5 -177.5v-195z
M1551 1083v-104h-727v104h727zM1160 549l344 533h137l-407 -611h-80zM854 1082l346 -536l4 -75h-79l-408 611h137zM1237 581v-581h-119v581h119z" />
    <glyph glyph-name="uni046E" unicode="&#x46e;" horiz-adv-x="1055" 
d="M155 1456h321q106 0 193.5 -25t150.5 -74t97.5 -120.5t34.5 -163.5q0 -75 -33.5 -140t-97.5 -114.5t-155.5 -77.5t-207.5 -28h-136v84h132q134 0 217.5 35t121.5 98t38 147q0 79 -37 141.5t-115.5 98.5t-202.5 36h-321v103zM322 774h136q128 0 224.5 -25t161.5 -73
t97.5 -118.5t32.5 -161.5q0 -97 -38.5 -172t-107.5 -127t-160.5 -79t-197.5 -27h-67q-94 0 -133 -34t-39 -93q0 -49 29.5 -86.5t69.5 -62.5t72 -37l-45 -88q-51 19 -106.5 58t-94.5 95t-39 125q0 71 32.5 121.5t96.5 77t161 26.5h63q88 0 159 21.5t121 61t77 94.5t27 122
q0 79 -26 136t-77 94t-125.5 54.5t-171.5 17.5h-132v80zM403 1912l172 -194l172 194h107v-12l-236 -262h-87l-235 263v11h107z" />
    <glyph glyph-name="uni046F" unicode="&#x46f;" horiz-adv-x="992" 
d="M139 1082h292q94 0 171.5 -19t134 -56t87.5 -91t31 -123q0 -58 -30 -108t-87.5 -88t-139.5 -59t-185 -21h-136v84h132q116 0 187.5 24t104.5 68.5t33 103.5q0 39 -18 72t-55 57.5t-94.5 38t-135.5 13.5h-292v104zM277 578h136q114 0 201 -18t145 -53t88 -86t30 -117
q0 -74 -34.5 -132t-96.5 -98.5t-144 -61.5t-177 -21h-45q-94 0 -132.5 -34t-38.5 -93q0 -49 29 -86.5t69.5 -62.5t72.5 -37l-45 -88q-51 19 -107 58t-94.5 95t-39.5 125q0 71 32.5 121.5t97.5 77t160 26.5h41q76 0 137 15t104.5 42t66.5 65t23 85q0 52 -22.5 89.5
t-66.5 61.5t-108.5 35.5t-149.5 11.5h-132v80zM282 1583l172 -194l172 194h107v-12l-236 -262h-87l-235 263v11h107z" />
    <glyph glyph-name="uni0470" unicode="&#x470;" horiz-adv-x="1423" 
d="M1170 1456h124v-518q0 -176 -74.5 -299t-204.5 -187t-297 -64h-25q-123 0 -227.5 36t-181 106.5t-119 173t-42.5 234.5v518h124v-518q0 -104 33 -186.5t93 -140t141.5 -87.5t179.5 -30h24q133 0 235 53t159.5 152.5t57.5 238.5v518zM766 1456v-1456h-124v1456h124z" />
    <glyph glyph-name="uni0471" unicode="&#x471;" horiz-adv-x="1400" 
d="M122 1082h120v-491q0 -137 33.5 -234t94.5 -157.5t144 -88.5t181 -28q137 0 229 42t146 113.5t77.5 160t23.5 179.5q-1 139 -41 265.5t-98 238.5h131q32 -60 61 -133t48 -164t19 -206q0 -125 -32.5 -234t-102.5 -191t-182.5 -128t-273.5 -46q-131 0 -237.5 35.5
t-182.5 109.5t-117 190.5t-41 277.5v489zM633 1082h119v-1526h-119v1526z" />
    <glyph glyph-name="uni0472" unicode="&#x472;" horiz-adv-x="1379" 
d="M685 1476q103 0 191 -30.5t157.5 -88t118.5 -139.5t75 -186t26 -226v-155q0 -153 -40 -277t-114 -212t-178.5 -135t-233.5 -47q-102 0 -189.5 30.5t-157.5 88t-119.5 140t-76 186t-26.5 226.5v155q0 153 40.5 276.5t115.5 211.5t179.5 135t231.5 47zM685 1367
q-99 0 -179 -36t-137 -103.5t-89.5 -162.5t-36.5 -213q-1 -19 -1.5 -38t-0.5 -39h889v38t-1 38q-5 119 -36.5 214t-88.5 162.5t-137.5 103.5t-181.5 36zM687 89q102 0 182 36t136.5 104t88 164.5t35.5 216.5q0 15 0.5 31t0.5 31h-888q0 -18 0.5 -36t1.5 -35
q5 -118 37.5 -212.5t90 -161.5t137 -102.5t178.5 -35.5z" />
    </font>
</defs>
</svg>
